<?xml version="1.0" standalone="no"?>
<!DOCTYPE svg PUBLIC "-//W3C//DTD SVG 1.1//EN" "http://www.w3.org/Graphics/SVG/1.1/DTD/svg11.dtd" >
<svg xmlns="http://www.w3.org/2000/svg" xmlns:xlink="http://www.w3.org/1999/xlink" version="1.1">
<metadata>
Created by FontForge 20200314 at Thu Oct 29 09:18:02 2020
 By Jason Otero
Copyright (c) Font Awesome
</metadata>
<!-- Font Awesome Pro 6.0.0-alpha1 by @fontawesome - https://fontawesome.com License - https://fontawesome.com/license (Commercial License) --><defs>
<font id="FontAwesome6Pro-Light" horiz-adv-x="512" >
  <font-face 
    font-family="Font Awesome 6 Pro Light"
    font-weight="300"
    font-stretch="normal"
    units-per-em="512"
    panose-1="2 0 3 3 0 0 0 0 0 0"
    ascent="448"
    descent="-64"
    bbox="-1456 -96 2096 466.75"
    underline-thickness="25"
    underline-position="-50"
    unicode-range="U+0020-F8FF"
  />
    <missing-glyph />
    <glyph glyph-name="caravan-simple" unicode="&#xe000;" horiz-adv-x="640" 
d="M432 320c18 0 32 -14 32 -32v-64c0 -18 -14 -32 -32 -32h-64c-18 0 -32 14 -32 32v64c0 18 14 32 32 32h64zM432 224v64h-64v-64h64zM240 320c18 0 32 -14 32 -32v-64c0 -18 -14 -32 -32 -32h-128c-18 0 -32 14 -32 32v64c0 18 14 32 32 32h128zM240 224v64h-128v-64h128
zM624 64c9 0 16 -7 16 -16s-7 -16 -16 -16h-336c0 -53 -43 -96 -96 -96s-96 43 -96 96c-53 0 -96 43 -96 96v192c0 53 43 96 96 96h320c88 0 160 -72 160 -160v-192h48zM192 -32c35 0 64 29 64 64s-29 64 -64 64s-64 -29 -64 -64s29 -64 64 -64zM544 64v192
c0 71 -57 128 -128 128h-320c-35 0 -64 -29 -64 -64v-192c0 -35 29 -64 64 -64h6c13 37 48 64 90 64s77 -27 90 -64h262z" />
    <glyph glyph-name="cat-space" unicode="&#xe001;" horiz-adv-x="640" 
d="M576 415c39 -29 64 -75 64 -127c0 -76 -54 -142 -128 -157v-147c0 -26 -22 -48 -48 -48s-48 22 -48 48v87l-89 -39c31 -4 56 -30 57 -63c0 -18 -14 -33 -33 -33h-207c-44 0 -80 36 -80 80v256c0 26 -22 48 -48 48c-9 0 -16 7 -16 16s7 16 16 16c44 0 80 -36 80 -80v-128
c29 55 101 136 224 143v1c0 52 25 98 64 127v1h1c26 20 59 32 95 32s69 -12 95 -32h1v-1zM480 416c-24 0 -48 -7 -69 -20l37 -28h64l37 28c-21 13 -45 20 -69 20zM544 352l-21 -16h-86l-21 16v-64c0 -35 29 -64 64 -64s64 29 64 64v64zM480 -16v144c-76 0 -141 53 -157 127
c-182 -9 -228 -178 -227 -242c0 -25 22 -45 48 -45h208c0 18 -14 32 -32 32h-48v53c0 25 -17 44 -40 55c-6 4 -10 11 -8 18c2 10 13 15 22 11c32 -15 54 -46 57 -81l123 55c10 4 22 -3 22 -15v-112c0 -9 7 -16 16 -16s16 7 16 16zM480 160c71 0 128 57 128 128
c0 32 -12 61 -32 84v-84c0 -53 -43 -96 -96 -96s-96 43 -96 96v84c-20 -23 -32 -52 -32 -84c0 -71 57 -128 128 -128zM432 288c0 4 2 8 5 11s7 5 11 5c9 0 16 -7 16 -16s-7 -16 -16 -16s-16 7 -16 16zM512 272c-4 0 -8 2 -11 5s-5 7 -5 11c0 9 7 16 16 16s16 -7 16 -16
s-7 -16 -16 -16zM176 368c-9 0 -16 7 -16 16s7 16 16 16h32v32c0 9 7 16 16 16s16 -7 16 -16v-32h32c9 0 16 -7 16 -16s-7 -16 -16 -16h-32v-32c0 -9 -7 -16 -16 -16s-16 7 -16 16v32h-32z" />
    <glyph glyph-name="coffee-pot" unicode="&#xe002;" 
d="M431 270c50 -40 81 -100 81 -167c0 -51 -19 -85 -50 -118c-11 -11 -26 -17 -41 -17h-266c-16 0 -31 6 -41 18c-31 33 -50 66 -50 117c0 67 31 127 81 167l-38 114h-27c-26 0 -48 -22 -48 -48v-96c0 -9 -7 -16 -16 -16s-16 7 -16 16v96c0 44 36 80 80 80h378
c11 0 18 -11 15 -21zM140 384l32 -96h232l32 96h-296zM178 256c-20 -16 -55 -42 -73 -96h366c-18 54 -52 79 -73 96h-220zM439 7c30 32 41 58 41 96c0 9 -1 17 -2 25h-380c-1 -8 -2 -16 -2 -25c0 -38 11 -64 41 -95c5 -5 11 -8 18 -8h266c7 0 13 3 18 7z" />
    <glyph glyph-name="comet" unicode="&#xe003;" 
d="M505 441c6 -7 9 -16 6 -25c-10 -32 -34 -109 -59 -167c5 -2 21 -4 28 -20c3 -9 3 -19 -1 -27c-23 -43 -82 -150 -140 -208c-78 -77 -203 -77 -281 0c-77 77 -77 203 0 281c58 58 165 117 208 139c9 5 18 5 27 2c16 -7 19 -24 20 -28c58 25 135 49 167 59c9 3 18 0 25 -6z
M408 229c0 0 33 69 68 183c-122 -38 -183 -69 -183 -69l-13 43s-144 -79 -199 -134c-65 -65 -65 -170 0 -235s170 -65 235 0c55 55 134 200 134 200zM222 274l31 -63l70 -11c6 0 10 -4 12 -10s1 -12 -4 -16l-50 -49l12 -70c1 -5 -2 -11 -6 -15c-5 -3 -11 -4 -16 -1l-63 33
l-63 -33c-2 -1 -4 -2 -7 -2c-4 0 -8 2 -11 6c-3 3 -5 8 -4 12l12 70l-50 49c-5 4 -6 10 -4 16s6 10 12 10l70 11l31 63c3 5 8 9 14 9s11 -4 14 -9zM246 136l39 38l-53 7l-24 49l-24 -49l-53 -7l39 -38l-9 -53l47 25l47 -25z" />
    <glyph glyph-name="fan-table" unicode="&#xe004;" horiz-adv-x="448" 
d="M448 224c0 -118 -92 -215 -208 -223v-33h128c9 0 16 -7 16 -16s-7 -16 -16 -16h-288c-9 0 -16 7 -16 16s7 16 16 16h128v33c-116 8 -208 105 -208 223c0 124 100 224 224 224s224 -100 224 -224zM224 34c105 0 190 85 190 190s-85 190 -190 190s-190 -85 -190 -190
s85 -190 190 -190zM224 239c8 0 15 -7 15 -15s-7 -15 -15 -15s-15 7 -15 15s7 15 15 15zM383 205c0 -27 -24 -42 -45 -39c-28 5 -47 8 -59 10c-2 -13 -6 -26 -13 -37c-21 -38 -59 -51 -88 -51c-18 0 -35 5 -51 14c-10 5 -17 15 -19 26c-2 12 1 23 9 32l38 46
c-11 8 -20 19 -26 30c-28 49 -12 111 37 139c22 12 48 1 56 -20l21 -56c31 13 67 9 95 -10s45 -50 45 -84zM343 198c6 0 8 3 8 7c0 25 -14 49 -36 61s-49 11 -71 -3c-4 -2 -9 -3 -14 -1c-5 1 -9 5 -11 9l-27 72c-2 6 -8 6 -10 4c-33 -19 -45 -62 -26 -95
c7 -11 17 -21 28 -27c9 -4 14 -16 6 -26l-49 -59c-3 -4 -1 -9 2 -11c11 -6 23 -9 36 -9c5 0 40 1 59 35c7 11 10 24 9 37c0 10 7 19 17 19h1c2 0 77 -13 78 -13z" />
    <glyph glyph-name="faucet" unicode="&#xe005;" 
d="M512 32c0 -18 -14 -32 -32 -32h-64c-17 0 -32 14 -32 31c0 18 -13 33 -30 33h-20c-22 -38 -63 -64 -110 -64s-88 26 -110 64h-98c-9 0 -16 7 -16 16s7 16 16 16h118c13 -37 48 -64 90 -64s77 27 90 64h38c35 0 64 -29 64 -64h64c0 71 -57 128 -128 128h-38
c-13 37 -48 64 -90 64s-77 -27 -90 -64h-118c-9 0 -16 7 -16 16s7 16 16 16h98c19 34 54 58 94 63v49h-128c-9 0 -16 7 -16 16s7 16 16 16h128v32c0 9 7 16 16 16s16 -7 16 -16v-32h128c9 0 16 -7 16 -16s-7 -16 -16 -16h-128v-49c40 -5 75 -29 94 -63h18
c88 0 160 -72 160 -160z" />
    <glyph glyph-name="faucet-drip" unicode="&#xe006;" 
d="M435 57c6 9 20 9 26 0c11 -15 35 -53 35 -73c0 -26 -22 -48 -48 -48s-48 22 -48 48c0 20 24 58 35 73zM448 -32c9 0 16 7 16 16c0 5 -7 19 -16 34c-9 -15 -16 -29 -16 -34c0 -9 7 -16 16 -16zM352 288c88 0 160 -72 160 -160c0 -18 -14 -32 -32 -32h-64
c-17 0 -32 14 -32 31c0 18 -13 33 -30 33h-20c-22 -38 -63 -64 -110 -64s-88 26 -110 64h-98c-9 0 -16 7 -16 16s7 16 16 16h118c13 -37 48 -64 90 -64s77 27 90 64h38c35 0 64 -29 64 -64h64c0 71 -57 128 -128 128h-38c-13 37 -48 64 -90 64s-77 -27 -90 -64h-118
c-9 0 -16 7 -16 16s7 16 16 16h98c19 34 54 58 94 63v33h-128c-9 0 -16 7 -16 16s7 16 16 16h128v16c0 9 7 16 16 16s16 -7 16 -16v-16h128c9 0 16 -7 16 -16s-7 -16 -16 -16h-128v-33c40 -5 75 -29 94 -63h18z" />
    <glyph glyph-name="galaxy" unicode="&#xe008;" 
d="M256 256c35 0 64 -29 64 -64s-29 -64 -64 -64s-64 29 -64 64s29 64 64 64zM256 160c18 0 32 14 32 32s-14 32 -32 32s-32 -14 -32 -32s14 -32 32 -32zM506 181c6 -22 7 -44 5 -67c-4 -38 -55 -46 -70 -11c-10 22 -26 40 -46 51c2 -20 1 -40 -3 -61
c-15 -73 -74 -134 -147 -151c-15 -4 -31 -6 -47 -6c-70 0 -60 58 -30 71c21 10 39 26 50 46c-7 -1 -13 -1 -20 -1c-14 0 -27 1 -41 4c-73 15 -134 74 -151 147c-6 22 -7 44 -5 67c4 38 55 45 70 11c10 -22 26 -40 46 -51c-2 20 -1 40 3 61c15 73 74 134 147 151
c15 4 31 6 47 6c70 0 60 -58 30 -71c-21 -10 -39 -26 -50 -46c7 1 13 1 20 1c14 0 27 -1 41 -4c73 -15 134 -74 151 -147v0zM479 117c9 87 -50 164 -131 180c-30 5 -50 2 -54 2c-25 0 -40 26 -28 48c15 26 38 47 66 59c2 1 3 3 3 5c-1 2 -2 4 -4 4c-89 9 -164 -52 -180 -131
c-3 -17 -4 -34 -2 -51c3 -26 -25 -44 -47 -31c-27 15 -48 38 -60 66c-2 5 -9 3 -9 -1c-2 -19 -1 -38 4 -57c14 -61 65 -110 127 -123c29 -6 49 -2 54 -2c25 0 40 -26 28 -48c-15 -26 -38 -47 -66 -59c-2 -1 -3 -3 -3 -5s2 -4 4 -4c19 -2 38 -1 57 4c61 14 110 65 123 127
c3 16 4 34 2 51c-3 26 25 44 47 31c27 -15 48 -38 60 -66c2 -5 9 -3 9 1z" />
    <glyph glyph-name="garage" unicode="&#xe009;" horiz-adv-x="640" 
d="M368 32c9 0 16 -7 16 -16s-7 -16 -16 -16h-96c-9 0 -16 7 -16 16s7 16 16 16h96zM611 330c17 -8 29 -25 29 -44v-334c0 -9 -7 -16 -16 -16s-16 7 -16 16v334c0 6 -4 12 -10 14l-272 115c-4 2 -8 2 -12 0l-272 -115c-6 -2 -10 -8 -10 -14v-334c0 -9 -7 -16 -16 -16
s-16 7 -16 16v334c0 19 12 36 29 44l272 114c12 5 26 5 38 0zM512 256c18 0 32 -14 32 -32v-272c0 -9 -7 -16 -16 -16s-16 7 -16 16v144h-384v-144c0 -9 -7 -16 -16 -16s-16 7 -16 16v272c0 18 14 32 32 32h384zM512 128v96h-384v-96h384z" />
    <glyph glyph-name="garage-car" unicode="&#xe00a;" horiz-adv-x="640" 
d="M224 48c9 0 16 -7 16 -16s-7 -16 -16 -16s-16 7 -16 16s7 16 16 16zM447 93c19 -6 33 -24 33 -45v-32c0 -21 -13 -38 -32 -45v-19c0 -9 -7 -16 -16 -16s-16 7 -16 16v16h-192v-16c0 -9 -7 -16 -16 -16s-16 7 -16 16v19c-19 7 -32 24 -32 45v32c0 21 13 38 32 45l18 60
c7 23 28 39 52 39h109c22 0 42 -13 50 -34zM241 144l-15 -48h186l-20 50c-4 8 -12 14 -21 14h-109c-10 0 -18 -7 -21 -16zM448 16v32c0 9 -7 16 -16 16h-224c-9 0 -16 -7 -16 -16v-32c0 -9 7 -16 16 -16h224c9 0 16 7 16 16zM611 330c17 -8 29 -25 29 -44v-334
c0 -9 -7 -16 -16 -16s-16 7 -16 16v334c0 6 -4 12 -10 14l-272 115c-4 2 -8 2 -12 0l-272 -115c-6 -2 -10 -8 -10 -14v-334c0 -9 -7 -16 -16 -16s-16 7 -16 16v334c0 19 12 36 29 44l272 114c12 5 26 5 38 0zM512 256c18 0 32 -14 32 -32v-272c0 -9 -7 -16 -16 -16
s-16 7 -16 16v272h-384v-272c0 -9 -7 -16 -16 -16s-16 7 -16 16v272c0 18 14 32 32 32h384zM416 48c9 0 16 -7 16 -16s-7 -16 -16 -16s-16 7 -16 16s7 16 16 16z" />
    <glyph glyph-name="garage-open" unicode="&#xe00b;" horiz-adv-x="640" 
d="M611 330c17 -8 29 -25 29 -44v-334c0 -9 -7 -16 -16 -16s-16 7 -16 16v334c0 6 -4 12 -10 14l-272 115c-4 2 -8 2 -12 0l-272 -115c-6 -2 -10 -8 -10 -14v-334c0 -9 -7 -16 -16 -16s-16 7 -16 16v334c0 19 12 36 29 44l272 114c12 5 26 5 38 0zM416 48c9 0 16 -7 16 -16
s-7 -16 -16 -16s-16 7 -16 16s7 16 16 16zM224 48c9 0 16 -7 16 -16s-7 -16 -16 -16s-16 7 -16 16s7 16 16 16zM512 256c18 0 32 -14 32 -32v-272c0 -9 -7 -16 -16 -16s-16 7 -16 16v208h-384v-208c0 -9 -7 -16 -16 -16s-16 7 -16 16v272c0 18 14 32 32 32h384zM512 192v32
h-384v-32h384zM447 93c19 -6 33 -24 33 -45v-32c0 -21 -13 -38 -32 -45v-19c0 -9 -7 -16 -16 -16s-16 7 -16 16v16h-192v-16c0 -9 -7 -16 -16 -16s-16 7 -16 16v19c-19 7 -32 24 -32 45v32c0 21 13 38 32 45l10 35h34l-10 -32h186l-13 32h34zM448 16v32c0 9 -7 16 -16 16
h-224c-9 0 -16 -7 -16 -16v-32c0 -9 7 -16 16 -16h224c9 0 16 7 16 16z" />
    <glyph glyph-name="heat" unicode="&#xe00c;" horiz-adv-x="448" 
d="M192 294c0 -42 18 -83 46 -115c32 -37 50 -84 50 -133v-62c0 -9 -7 -16 -16 -16s-16 7 -16 16v63c0 43 -18 83 -46 115c-32 37 -50 84 -50 134v104c0 9 7 16 16 16s16 -7 16 -16v-106zM64 316c0 -48 17 -93 46 -132c32 -44 50 -97 50 -152v-48c0 -9 -7 -16 -16 -16
s-16 7 -16 16v52c0 48 -17 93 -46 132c-32 44 -50 97 -50 152v16c0 9 7 16 16 16s16 -7 16 -16v-20zM366 184c32 -44 50 -97 50 -152v-48c0 -9 -7 -16 -16 -16s-16 7 -16 16v52c0 48 -17 93 -46 132c-32 44 -50 97 -50 152v16c0 9 7 16 16 16s16 -7 16 -16v-20
c0 -48 17 -93 46 -132z" />
    <glyph glyph-name="house" unicode="&#xe00d;" horiz-adv-x="576" 
d="M571 204c6 -6 7 -16 1 -23c-3 -3 -8 -5 -12 -5s-8 1 -11 4l-37 33v-197c0 -44 -36 -80 -80 -80h-288c-44 0 -80 36 -80 80v197l-37 -33c-7 -6 -17 -5 -23 1c-6 7 -5 17 1 23l272 240c6 5 16 5 22 0l85 -75v31c0 9 7 16 16 16h96c9 0 16 -7 16 -16v-144v0zM416 384v-44
l64 -56v100h-64zM480 240v1l-192 170l-192 -170v-1v-224c0 -26 22 -48 48 -48h288c26 0 48 22 48 48v224zM208 229c0 15 12 27 27 27h107c14 0 26 -12 26 -27v-106c0 -15 -12 -27 -26 -27h-107c-15 0 -27 12 -27 27v106zM240 224v-96h96v96h-96z" />
    <glyph glyph-name="house-day" unicode="&#xe00e;" horiz-adv-x="640" 
d="M336 171c0 12 10 21 22 21h85c12 0 21 -10 21 -21v-86c0 -11 -9 -21 -21 -21h-85c-12 0 -22 10 -22 21v86zM368 160v-64h64v64h-64zM635 152c6 -6 7 -16 1 -22c-6 -7 -15 -8 -22 -2l-38 33v-161c0 -35 -28 -64 -64 -64h-224c-35 0 -64 29 -64 64v161l-37 -33
c-7 -6 -17 -5 -23 1c-6 7 -5 17 2 23l224 196c6 5 15 5 21 0l133 -117v73c0 9 7 16 16 16s16 -7 16 -16v-101zM544 0v189l-144 126l-145 -127c1 -1 1 -3 1 -4v-184c0 -18 14 -32 32 -32h224c18 0 32 14 32 32zM175 221c-2 -6 -8 -10 -15 -10c-2 0 -4 0 -5 1
c-26 9 -43 33 -43 60c0 35 29 64 64 64c27 0 51 -17 60 -43c3 -8 -1 -17 -9 -20c-9 -3 -18 1 -21 10c-4 12 -16 21 -30 21c-18 0 -32 -14 -32 -32c0 -14 9 -26 21 -30c9 -3 13 -12 10 -21zM176 368c-9 0 -16 7 -16 16v48c0 9 7 16 16 16s16 -7 16 -16v-48
c0 -9 -7 -16 -16 -16zM80 272c0 -9 -7 -16 -16 -16h-48c-9 0 -16 7 -16 16s7 16 16 16h48c9 0 16 -7 16 -16zM85 340l-33 34c-7 6 -6 15 0 22s16 7 22 0l34 -34c6 -6 6 -16 0 -22c-3 -3 -7 -5 -11 -5s-8 2 -12 5zM85 204c7 6 17 6 23 0s6 -16 0 -22l-34 -34
c-3 -4 -7 -5 -11 -5s-8 1 -11 5c-7 6 -7 16 0 22zM255 335c-4 0 -8 2 -11 5c-6 6 -6 16 0 22l34 34c6 7 15 6 22 0s7 -16 0 -22l-33 -34c-4 -3 -8 -5 -12 -5z" />
    <glyph glyph-name="house-person-leave" unicode="&#xe00f;" horiz-adv-x="640" 
d="M341 341c-6 -6 -16 -7 -22 -1l-79 71l-144 -126v-205c0 -9 7 -16 16 -16h176c9 0 16 -7 16 -16v0c0 -9 -7 -16 -16 -16h-176c-27 0 -48 21 -48 48v177l-38 -33c-6 -6 -16 -5 -22 1c-6 7 -5 17 1 23l224 196c6 5 15 5 21 0l90 -80c7 -6 7 -17 1 -23v0zM181 288h86
c11 0 21 -10 21 -21v-86c0 -12 -10 -21 -21 -21h-86c-11 0 -21 10 -21 21v86c0 11 9 21 21 21zM256 192v64h-64v-64h64zM438 95c8 -3 12 -12 9 -21l-23 -63c-1 -2 -3 -4 -5 -6l-72 -65c-3 -3 -7 -4 -11 -4s-9 2 -12 5c-6 7 -5 17 1 23l70 62l22 60c3 8 12 12 21 9zM634 173
c7 -6 8 -16 3 -23c-3 -4 -8 -6 -13 -6c-3 0 -7 1 -10 3l-64 48c-4 3 -6 8 -6 13v38c0 16 -12 30 -28 32l-37 5l-22 -87c-4 -18 2 -38 17 -49l79 -65c8 -6 14 -16 16 -26l23 -101c2 -8 -4 -17 -13 -19h-3c-7 0 -14 5 -16 13l-22 100c-1 3 -3 6 -5 9l-79 64
c-24 19 -35 51 -28 81l20 81c-5 -1 -10 -2 -15 -4l-27 -11c-14 -5 -25 -18 -28 -33l-8 -32c-3 -8 -11 -14 -20 -12c-8 3 -14 11 -11 20l8 32c6 25 24 46 47 55l27 11c18 7 37 9 56 6l46 -6c31 -5 55 -32 55 -64v-30zM536 336c-31 0 -56 25 -56 56s25 56 56 56s56 -25 56 -56
s-25 -56 -56 -56zM536 416c-13 0 -24 -11 -24 -24s11 -24 24 -24s24 11 24 24s-11 24 -24 24z" />
    <glyph glyph-name="house-night" unicode="&#xe010;" horiz-adv-x="640" 
d="M112 224c-62 0 -112 50 -112 112s50 112 112 112c7 0 14 -1 20 -2c9 -1 15 -8 17 -17c1 -8 -3 -17 -10 -21c-25 -14 -37 -45 -26 -72c9 -27 38 -43 66 -38c9 2 17 -2 22 -9c4 -7 3 -17 -2 -23c-21 -27 -53 -42 -87 -42zM34 354c-7 -31 5 -63 31 -82c25 -19 60 -21 87 -5
c-32 5 -59 27 -70 58s-5 65 16 90c-32 -6 -57 -30 -64 -61zM336 171c0 12 10 21 22 21h85c12 0 21 -10 21 -21v-86c0 -11 -9 -21 -21 -21h-85c-12 0 -22 10 -22 21v86zM368 160v-64h64v64h-64zM635 152c6 -6 7 -16 1 -22c-6 -7 -15 -8 -22 -2l-38 33v-161
c0 -35 -28 -64 -64 -64h-224c-35 0 -64 29 -64 64v161l-37 -33c-7 -6 -17 -5 -23 1c-6 7 -5 17 2 23l224 196c6 5 15 5 21 0l133 -117v73c0 9 7 16 16 16s16 -7 16 -16v-101zM544 0v189l-144 126l-145 -127c1 -1 1 -3 1 -4v-184c0 -18 14 -32 32 -32h224c18 0 32 14 32 32z
M208 368c-9 0 -16 7 -16 16s7 16 16 16h32v32c0 9 7 16 16 16s16 -7 16 -16v-32h32c9 0 16 -7 16 -16s-7 -16 -16 -16h-32v-32c0 -9 -7 -16 -16 -16s-16 7 -16 16v32h-32zM144 80c9 0 16 -7 16 -16s-7 -16 -16 -16h-32v-32c0 -9 -7 -16 -16 -16s-16 7 -16 16v32h-32
c-9 0 -16 7 -16 16s7 16 16 16h32v32c0 9 7 16 16 16s16 -7 16 -16v-32h32z" />
    <glyph glyph-name="house-person-return" unicode="&#xe011;" horiz-adv-x="640" 
d="M181 288h86c11 0 21 -10 21 -21v-86c0 -12 -10 -21 -21 -21h-86c-11 0 -21 10 -21 21v86c0 11 9 21 21 21zM256 192v64h-64v-64h64zM341 341c-6 -6 -16 -7 -22 -1l-79 71l-144 -126v-205c0 -9 7 -16 16 -16h176c9 0 16 -7 16 -16v0c0 -9 -7 -16 -16 -16h-176
c-27 0 -48 21 -48 48v177l-38 -33c-6 -6 -16 -5 -22 1c-6 7 -5 17 1 23l224 196c6 5 15 5 21 0l90 -80c7 -6 7 -17 1 -23v0zM424 336c-31 0 -56 25 -56 56s25 56 56 56s56 -25 56 -56s-25 -56 -56 -56zM424 416c-13 0 -24 -11 -24 -24s11 -24 24 -24s24 11 24 24
s-11 24 -24 24zM635 -36c6 -6 7 -16 1 -23c-3 -3 -8 -5 -12 -5s-8 1 -11 4l-72 65c-2 2 -4 4 -5 6l-23 63c-3 9 1 18 9 21c9 3 18 -1 21 -9l22 -60zM534 203c7 -30 -4 -62 -28 -81l-79 -64c-2 -3 -4 -6 -5 -9l-22 -100c-2 -8 -9 -13 -16 -13h-3c-9 2 -15 11 -13 19l23 101
c2 10 8 20 16 26l79 65c15 11 21 31 17 49l-22 87l-38 -5c-15 -2 -27 -16 -27 -32v-38c0 -5 -2 -10 -6 -13l-64 -48c-3 -2 -7 -3 -10 -3c-5 0 -10 2 -13 6c-5 7 -4 17 3 23l58 43v30c0 32 24 59 55 64l46 6c19 3 38 1 56 -6l27 -11c23 -10 41 -30 47 -55l9 -32
c2 -9 -4 -17 -12 -20c-9 -2 -17 4 -20 12l-8 32c-3 15 -14 28 -28 33l-27 11c-5 2 -10 3 -15 4z" />
    <glyph glyph-name="house-signal" unicode="&#xe012;" horiz-adv-x="640" 
d="M16 36c44 0 80 -36 80 -80c0 -9 -7 -16 -16 -16s-16 7 -16 16c0 26 -22 48 -48 48c-9 0 -16 7 -16 16s7 16 16 16zM16 228c150 0 272 -122 272 -272c0 -9 -7 -16 -16 -16s-16 7 -16 16c0 132 -108 240 -240 240c-9 0 -16 7 -16 16s7 16 16 16zM16 132
c97 0 176 -79 176 -176c0 -9 -7 -16 -16 -16s-16 7 -16 16c0 79 -65 144 -144 144c-9 0 -16 7 -16 16s7 16 16 16zM635 252c6 -6 7 -16 1 -22c-6 -7 -16 -8 -22 -2l-38 33v-177c0 -27 -21 -48 -48 -48h-192c-9 0 -16 7 -16 16v0c0 9 7 16 16 16h192c9 0 16 7 16 16v205
l-144 126l-145 -127c1 -1 1 -3 1 -4v-72c0 -9 -7 -16 -16 -16s-16 7 -16 16v49l-37 -33c-5 -4 -11 -5 -16 -3c-6 1 -10 6 -11 12c-1 5 1 11 6 15l58 51l166 145c6 5 15 5 21 0l133 -117v73c0 10 9 17 19 16c8 -1 13 -9 13 -17v-100zM443 164h-85c-12 0 -22 9 -22 21v86
c0 11 10 21 22 21h85c12 0 21 -10 21 -21v-86c0 -11 -9 -21 -21 -21zM368 260v-64h64v64h-64z" />
    <glyph glyph-name="lamp-desk" unicode="&#xe014;" 
d="M494 384c16 0 24 -19 13 -30l-60 -60c10 -13 17 -28 17 -46c0 -40 -32 -72 -72 -72c-18 0 -33 7 -46 17l-60 -60c-3 -3 -7 -5 -12 -5s-9 2 -13 5c-3 3 -5 8 -5 13v125l-13 13l-97 -97l61 -215c1 -1 1 -3 1 -4h160c9 0 16 -7 16 -16s-7 -16 -16 -16h-352
c-9 0 -16 7 -16 16s7 16 16 16h159l-62 220c-2 5 0 11 4 15l103 104l-5 4c-31 32 -32 83 0 114s82 31 114 0l40 -41h125zM392 208c22 0 40 18 40 40c0 8 -3 17 -8 23l-55 -55c6 -5 15 -8 23 -8zM288 181l171 171h-103l-50 50c-19 18 -50 19 -68 0s-18 -49 0 -68l50 -50v-103
z" />
    <glyph glyph-name="lamp-floor" unicode="&#xe015;" horiz-adv-x="384" 
d="M381 269c5 -10 4 -22 -2 -31s-16 -14 -27 -14h-144v-256h96c9 0 16 -7 16 -16s-7 -16 -16 -16h-224c-9 0 -16 7 -16 16s7 16 16 16h96v256h-144c-11 0 -21 5 -27 14s-7 21 -2 31l68 160c5 11 17 19 30 19h182c13 0 25 -8 30 -19zM32 256h320l-69 160h-182z" />
    <glyph glyph-name="light-ceiling" unicode="&#xe016;" 
d="M272 287c123 -7 223 -100 240 -219c3 -19 -13 -36 -32 -36h-448c-20 0 -35 18 -32 38c18 118 117 210 240 217v145c0 9 7 16 16 16s16 -7 16 -16v-145zM32 64h448c-16 109 -112 192 -224 192s-208 -83 -224 -192zM324 15c9 -2 14 -11 11 -19c-9 -35 -42 -60 -79 -60
s-70 25 -80 60c-2 8 3 17 12 19c8 3 17 -2 19 -11c6 -21 26 -36 49 -36s43 15 48 36c3 9 12 14 20 11z" />
    <glyph glyph-name="light-switch" unicode="&#xe017;" horiz-adv-x="384" 
d="M240 352c26 0 48 -22 48 -48v-224c0 -26 -22 -48 -48 -48h-96c-26 0 -48 22 -48 48v224c0 26 22 48 48 48h96zM256 80v96h-128v-96c0 -9 7 -16 16 -16h96c9 0 16 7 16 16zM256 208v96c0 9 -7 16 -16 16h-96c-9 0 -16 -7 -16 -16v-96h128zM320 448c35 0 64 -29 64 -64
v-384c0 -35 -29 -64 -64 -64h-256c-35 0 -64 29 -64 64v384c0 35 29 64 64 64h256zM352 0v384c0 18 -14 32 -32 32h-112v-16c0 -9 -7 -16 -16 -16s-16 7 -16 16v16h-112c-18 0 -32 -14 -32 -32v-384c0 -18 14 -32 32 -32h112v16c0 9 7 16 16 16s16 -7 16 -16v-16h112
c18 0 32 14 32 32z" />
    <glyph glyph-name="light-switch-off" unicode="&#xe018;" horiz-adv-x="384" 
d="M320 448c35 0 64 -29 64 -64v-384c0 -35 -29 -64 -64 -64h-256c-35 0 -64 29 -64 64v384c0 35 29 64 64 64h256zM352 0v384c0 18 -14 32 -32 32h-112v-16c0 -9 -7 -16 -16 -16s-16 7 -16 16v16h-112c-18 0 -32 -14 -32 -32v-384c0 -18 14 -32 32 -32h112v16
c0 9 7 16 16 16s16 -7 16 -16v-16h112c18 0 32 14 32 32zM240 352c26 0 48 -22 48 -48v-224c0 -26 -22 -48 -48 -48h-96c-26 0 -48 22 -48 48v224c0 26 22 48 48 48h96zM256 80v96h-128v-96c0 -9 7 -16 16 -16h96c9 0 16 7 16 16zM256 208v96c0 9 -7 16 -16 16h-96
c-9 0 -16 -7 -16 -16v-96h128zM176 96c-9 0 -16 7 -16 16s7 16 16 16h32c9 0 16 -7 16 -16s-7 -16 -16 -16h-32z" />
    <glyph glyph-name="light-switch-on" unicode="&#xe019;" horiz-adv-x="384" 
d="M64 -64c-35 0 -64 29 -64 64v384c0 35 29 64 64 64h256c35 0 64 -29 64 -64v-384c0 -35 -29 -64 -64 -64h-256zM32 384v-384c0 -18 14 -32 32 -32h112v16c0 9 7 16 16 16s16 -7 16 -16v-16h112c18 0 32 14 32 32v384c0 18 -14 32 -32 32h-112v-16c0 -9 -7 -16 -16 -16
s-16 7 -16 16v16h-112c-18 0 -32 -14 -32 -32zM144 32c-26 0 -48 22 -48 48v224c0 26 22 48 48 48h96c26 0 48 -22 48 -48v-224c0 -26 -22 -48 -48 -48h-96zM128 304v-96h128v96c0 9 -7 16 -16 16h-96c-9 0 -16 -7 -16 -16zM128 176v-96c0 -9 7 -16 16 -16h96
c9 0 16 7 16 16v96h-128zM208 288c9 0 16 -7 16 -16s-7 -16 -16 -16h-32c-9 0 -16 7 -16 16s7 16 16 16h32z" />
    <glyph glyph-name="microwave" unicode="&#xe01b;" horiz-adv-x="576" 
d="M512 416c35 0 64 -29 64 -64v-288c0 -35 -29 -64 -64 -64v-16c0 -9 -7 -16 -16 -16s-16 7 -16 16v16h-384v-16c0 -9 -7 -16 -16 -16s-16 7 -16 16v16c-35 0 -64 29 -64 64v288c0 35 29 64 64 64h448zM544 64v288c0 18 -14 32 -32 32h-448c-18 0 -32 -14 -32 -32v-288
c0 -18 14 -32 32 -32h448c18 0 32 14 32 32zM416 352c18 0 32 -14 32 -32v-224c0 -18 -14 -32 -32 -32h-320c-18 0 -32 14 -32 32v224c0 18 14 32 32 32h320zM416 96v224h-320v-224h320zM496 320c9 0 16 -7 16 -16s-7 -16 -16 -16s-16 7 -16 16s7 16 16 16zM496 224
c9 0 16 -7 16 -16s-7 -16 -16 -16s-16 7 -16 16s7 16 16 16z" />
    <glyph glyph-name="outlet" unicode="&#xe01c;" horiz-adv-x="448" 
d="M384 416c35 0 64 -29 64 -64v-320c0 -35 -29 -64 -64 -64h-320c-35 0 -64 29 -64 64v320c0 35 29 64 64 64h320zM416 32v320c0 18 -14 32 -32 32h-320c-18 0 -32 -14 -32 -32v-320c0 -18 14 -32 32 -32h320c18 0 32 14 32 32zM224 160c13 0 24 -11 24 -24v-24h-48v24
c0 13 11 24 24 24zM176 256c9 0 16 -7 16 -16v-48c0 -9 -7 -16 -16 -16s-16 7 -16 16v48c0 9 7 16 16 16zM272 256c9 0 16 -7 16 -16v-48c0 -9 -7 -16 -16 -16s-16 7 -16 16v48c0 9 7 16 16 16zM319 320c5 0 10 -2 14 -5c31 -32 51 -75 51 -123s-20 -91 -51 -123
c-4 -3 -9 -5 -14 -5h-190c-5 0 -10 2 -14 5c-31 32 -51 75 -51 123s20 91 51 123c4 3 9 5 14 5v0h190v0zM314 96c24 26 38 60 38 96s-14 70 -38 96h-180c-24 -26 -38 -60 -38 -96s14 -70 38 -96h180z" />
    <glyph glyph-name="oven" unicode="&#xe01d;" horiz-adv-x="448" 
d="M352 448c53 0 96 -43 96 -96v-352c0 -35 -29 -64 -64 -64h-320c-35 0 -64 29 -64 64v352c0 53 43 96 96 96h256zM416 0v256h-384v-256c0 -18 14 -32 32 -32h320c18 0 32 14 32 32zM416 288v64c0 35 -29 64 -64 64h-256c-35 0 -64 -29 -64 -64v-64h384zM96 0
c-18 0 -32 14 -32 32v160c0 18 14 32 32 32h256c18 0 32 -14 32 -32v-160c0 -18 -14 -32 -32 -32h-256zM96 192v-160h256v160h-256zM304 160c9 0 16 -7 16 -16s-7 -16 -16 -16h-160c-9 0 -16 7 -16 16s7 16 16 16h160zM80 352c9 0 16 -7 16 -16s-7 -16 -16 -16s-16 7 -16 16
s7 16 16 16zM176 352c9 0 16 -7 16 -16s-7 -16 -16 -16s-16 7 -16 16s7 16 16 16zM272 352c9 0 16 -7 16 -16s-7 -16 -16 -16s-16 7 -16 16s7 16 16 16zM368 352c9 0 16 -7 16 -16s-7 -16 -16 -16s-16 7 -16 16s7 16 16 16z" />
    <glyph glyph-name="planet-moon" unicode="&#xe01f;" horiz-adv-x="576" 
d="M224 384c124 0 224 -100 224 -224s-100 -224 -224 -224s-224 100 -224 224s100 224 224 224zM55 245c-6 -13 3 -29 19 -29h25c10 0 20 -4 28 -12l57 -57v-35c0 -13 11 -24 24 -24h8v-55c0 -5 3 -8 8 -8c4 0 7 1 11 1c6 1 12 5 15 11l40 65c4 8 6 16 6 25v17
c0 13 -11 24 -24 24h-65c-11 0 -22 4 -30 12c-16 15 -16 42 -2 58l48 55c6 9 9 20 9 30c0 11 -8 21 -24 21c-66 0 -126 -39 -153 -99zM224 -32c106 0 192 86 192 192c0 94 -69 173 -159 189c5 -8 7 -17 7 -26c0 -17 -5 -34 -15 -49l-1 -1l-1 -1l-49 -57c-3 -3 -3 -8 0 -11
c2 -3 6 -4 9 -4h65c31 0 56 -25 56 -56v-17c0 -13 -3 -27 -9 -39l-41 -65c-7 -15 -21 -25 -38 -28c-2 -1 -11 -2 -16 -2c-22 0 -40 18 -40 40v28c-19 10 -32 29 -32 51v22l-48 48c-1 1 -3 2 -5 2h-25c-14 0 -28 6 -38 16c-2 -13 -4 -26 -4 -40c0 -106 86 -192 192 -192z
M512 448c35 0 64 -29 64 -64s-29 -64 -64 -64s-64 29 -64 64s29 64 64 64zM512 352c18 0 32 14 32 32s-14 32 -32 32s-32 -14 -32 -32s14 -32 32 -32z" />
    <glyph glyph-name="planet-ringed" unicode="&#xe020;" 
d="M498 435c24 -24 17 -68 -20 -132c-7 -14 -16 -28 -26 -42c8 -22 12 -45 12 -69c0 -115 -93 -208 -208 -208c-24 0 -47 4 -69 12c-14 -10 -28 -19 -42 -26c-39 -23 -71 -34 -95 -34c-15 0 -28 5 -37 14c-21 21 -17 63 15 122c4 7 14 10 22 6c7 -4 10 -14 6 -21
c-25 -47 -28 -77 -20 -85c7 -6 34 -9 94 25c7 5 15 10 23 15c-63 36 -105 103 -105 180c0 115 93 208 208 208c77 0 144 -42 180 -105c5 8 10 16 15 23c34 60 31 87 25 94c-8 8 -38 5 -85 -20c-7 -4 -17 -2 -21 6s-1 18 6 22c59 32 101 36 122 15zM80 192
c0 -71 42 -132 103 -160c41 29 84 66 125 108c42 41 79 84 108 125c-28 61 -89 103 -160 103c-97 0 -176 -79 -176 -176zM432 192c0 12 -1 24 -4 36c-27 -37 -60 -74 -97 -111s-74 -70 -111 -97c12 -3 24 -4 36 -4c97 0 176 79 176 176z" />
    <glyph glyph-name="police-box" unicode="&#xe021;" horiz-adv-x="448" 
d="M200 200c9 0 16 -7 16 -16v-64c0 -9 -7 -16 -16 -16h-64c-9 0 -16 7 -16 16v64c0 9 7 16 16 16h64zM192 128v48h-48v-48h48zM248 320h64c9 0 16 -7 16 -16v-64c0 -9 -7 -16 -16 -16h-64c-9 0 -16 7 -16 16v64c0 9 7 16 16 16zM276 248v20h-20v-20h20zM276 276v20h-20v-20
h20zM304 248v20h-20v-20h20zM304 276v20h-20v-20h20zM200 320c9 0 16 -7 16 -16v-64c0 -9 -7 -16 -16 -16h-64c-9 0 -16 7 -16 16v64c0 9 7 16 16 16h64zM164 248v20h-20v-20h20zM164 276v20h-20v-20h20zM192 248v20h-20v-20h20zM192 276v20h-20v-20h20zM400 -32
c9 0 16 -7 16 -16s-7 -16 -16 -16h-352c-9 0 -16 7 -16 16s7 16 16 16h16v384c0 18 14 32 32 32v16c0 9 7 16 16 16h96v16c0 9 7 16 16 16s16 -7 16 -16v-16h96c9 0 16 -7 16 -16v-16c18 0 32 -14 32 -32v-384h16zM352 -32v384h-32v32h-192v-32h-32v-384h256z" />
    <glyph glyph-name="person-to-portal" unicode="&#xe022;" 
d="M432 448c55 0 80 -133 80 -256s-25 -256 -80 -256c-49 0 -68 101 -75 161c-1 9 5 17 14 17c9 2 17 -5 18 -14c11 -99 36 -132 43 -132c14 0 48 76 48 224s-34 224 -48 224c-8 0 -34 -36 -44 -145c-1 -9 -9 -16 -18 -15s-15 9 -14 18c5 52 22 174 76 174zM221 295l-38 -77
c-11 -21 -4 -47 15 -61l115 -80c6 -4 8 -11 6 -17l-32 -112c-2 -7 -8 -12 -15 -12c-1 0 -3 0 -4 1c-9 2 -14 11 -11 19l28 101l-105 74c-32 23 -43 66 -26 102l35 70c-3 0 -7 1 -11 1h-39c-4 0 -7 -1 -10 -3l-55 -42c-7 -5 -17 -4 -23 3c-5 7 -4 17 3 23l56 41
c8 7 18 10 29 10h39c22 0 44 -5 64 -15c27 -14 49 -36 63 -63l20 -41c3 -6 9 -9 15 -9h60c9 0 16 -7 16 -16s-7 -16 -16 -16h-60c-19 0 -35 10 -43 27l-21 40c-10 21 -28 39 -49 49zM135 110c8 -4 11 -13 7 -21l-16 -32c-2 -6 -8 -9 -14 -9h-96c-9 0 -16 7 -16 16
s7 16 16 16h86l12 23c4 8 13 11 21 7zM280 336c-31 0 -56 25 -56 56s25 56 56 56s56 -25 56 -56s-25 -56 -56 -56zM280 416c-13 0 -24 -11 -24 -24s11 -24 24 -24s24 11 24 24s-11 24 -24 24z" />
    <glyph glyph-name="person-from-portal" unicode="&#xe023;" 
d="M376 336c-31 0 -56 25 -56 56s25 56 56 56s56 -25 56 -56s-25 -56 -56 -56zM376 416c-13 0 -24 -11 -24 -24s11 -24 24 -24s24 11 24 24s-11 24 -24 24zM231 110c8 -4 11 -13 7 -21l-16 -32c-2 -6 -8 -9 -14 -9h-96c-9 0 -16 7 -16 16s7 16 16 16h86l12 23
c4 8 13 11 21 7zM496 208c9 0 16 -7 16 -16s-7 -16 -16 -16h-60c-19 0 -35 10 -43 27l-21 40c-10 21 -28 39 -49 49l-6 3l-38 -77c-11 -21 -4 -47 15 -61l115 -80c6 -4 8 -11 6 -17l-32 -112c-2 -7 -8 -12 -15 -12c-1 0 -3 0 -4 1c-9 2 -14 11 -11 19l28 101l-105 74
c-32 23 -43 66 -26 102l35 70c-3 0 -7 1 -11 1h-39c-4 0 -7 -1 -10 -3l-55 -42c-4 -2 -8 -3 -12 -3c1 -21 2 -43 2 -64c0 -17 0 -33 -1 -49c-1 -9 -8 -16 -17 -15c-9 0 -16 8 -15 16c1 16 1 32 1 48c0 148 -34 224 -48 224s-48 -76 -48 -224s34 -224 48 -224c2 0 14 7 26 44
c2 8 11 13 20 10c8 -3 13 -12 10 -20c-14 -44 -33 -66 -56 -66c-55 0 -80 133 -80 256s25 256 80 256c41 0 65 -72 75 -160l51 38c8 7 18 10 29 10h39c22 0 44 -5 64 -15c27 -14 49 -36 63 -63l20 -41c3 -6 9 -9 15 -9h60z" />
    <glyph glyph-name="radar" unicode="&#xe024;" 
d="M496 208c9 0 16 -7 16 -16c0 -141 -115 -256 -256 -256s-256 115 -256 256s115 256 256 256c63 0 122 -23 169 -64l44 43c6 7 15 6 22 0s7 -16 0 -22l-224 -224c-3 -3 -7 -5 -11 -5s-8 2 -11 5c-7 6 -7 16 0 22l43 44c-9 6 -20 9 -32 9c-35 0 -64 -29 -64 -64
s29 -64 64 -64s64 29 64 64c0 9 7 16 16 16s16 -7 16 -16c0 -53 -43 -96 -96 -96s-96 43 -96 96s43 96 96 96c20 0 39 -6 55 -18l34 34c-25 20 -56 32 -89 32c-57 0 -109 -34 -132 -86c-3 -6 -9 -10 -15 -10c-2 0 -4 0 -6 1c-8 4 -12 13 -8 21c28 65 91 106 161 106
c42 0 81 -15 112 -41l34 34c-40 35 -92 55 -146 55c-124 0 -224 -101 -224 -224s100 -224 224 -224s224 101 224 224c0 9 7 16 16 16zM186 31c-41 17 -74 50 -91 91c-4 8 0 17 8 21c8 3 17 -1 21 -9c15 -33 41 -59 74 -74c8 -4 12 -13 9 -21c-3 -6 -9 -10 -15 -10
c-2 0 -4 1 -6 2zM400 192c0 9 7 16 16 16s16 -7 16 -16c0 -70 -41 -133 -106 -161c-2 -1 -4 -2 -6 -2c-6 0 -12 4 -15 10c-3 8 1 17 9 21c52 23 86 75 86 132zM120 192c0 -13 -11 -24 -24 -24s-24 11 -24 24s11 24 24 24s24 -11 24 -24zM232 32c0 13 11 24 24 24
s24 -11 24 -24s-11 -24 -24 -24s-24 11 -24 24z" />
    <glyph glyph-name="raygun" unicode="&#xe025;" horiz-adv-x="576" 
d="M112 288c9 0 16 -7 16 -16s-7 -16 -16 -16s-16 7 -16 16s7 16 16 16zM553 350c5 3 11 2 15 0c5 -3 8 -9 8 -14v-128c0 -6 -3 -11 -8 -14c-4 -3 -10 -3 -15 0l-96 48c-6 2 -9 8 -9 14h-32v-80c0 -9 -7 -16 -16 -16s-16 7 -16 16v80h-32v-112c0 -9 -7 -16 -16 -16
s-16 7 -16 16v50c-5 -5 -10 -10 -16 -13l-127 -221c-6 -11 -17 -19 -29 -22c-12 -4 -26 -2 -37 4l-55 32c-11 7 -19 17 -22 30c-4 12 -2 25 4 36l70 120c-60 3 -108 51 -108 112c0 29 11 57 32 78v82c0 5 3 10 7 13c5 3 11 4 15 2l141 -63h45c30 0 59 -12 80 -34v50
c0 9 7 16 16 16s16 -7 16 -16v-112h32v80c0 9 7 16 16 16s16 -7 16 -16v-80h32c0 6 3 12 9 14zM64 407v-34c15 7 31 11 48 11h5zM149 -24l106 184h-110l-79 -136c-4 -6 -3 -17 6 -22l55 -32c9 -5 19 -1 22 6zM240 192c44 0 80 36 80 80s-36 80 -80 80h-128
c-44 0 -80 -36 -80 -80s36 -80 80 -80h128zM544 234v76l-64 -32v-12zM176 288c9 0 16 -7 16 -16s-7 -16 -16 -16s-16 7 -16 16s7 16 16 16zM240 288c9 0 16 -7 16 -16s-7 -16 -16 -16s-16 7 -16 16s7 16 16 16z" />
    <glyph glyph-name="refrigerator" unicode="&#xe026;" horiz-adv-x="384" 
d="M288 448c53 0 96 -43 96 -96v-352c0 -35 -29 -64 -64 -64h-256c-35 0 -64 29 -64 64v352c0 53 43 96 96 96h192zM352 0v256h-64v-176c0 -9 -7 -16 -16 -16s-16 7 -16 16v176h-224v-256c0 -18 14 -32 32 -32h256c18 0 32 14 32 32zM352 288v64c0 35 -29 64 -64 64h-192
c-35 0 -64 -29 -64 -64v-64h224v48c0 9 7 16 16 16s16 -7 16 -16v-48h64z" />
    <glyph glyph-name="rocket-launch" unicode="&#xe027;" 
d="M368 360c31 0 56 -25 56 -56s-25 -56 -56 -56s-56 25 -56 56s25 56 56 56zM368 280c13 0 24 11 24 24s-11 24 -24 24s-24 -11 -24 -24s11 -24 24 -24zM505 429c7 -32 7 -58 7 -83c0 -102 -55 -164 -128 -211v-104c0 -17 -12 -36 -26 -43l-99 -49c-4 -2 -7 -3 -11 -3
c-13 0 -24 11 -24 24v104c0 53 -43 96 -96 96h-104c-13 0 -24 11 -24 24c0 4 1 7 3 11l49 99c7 14 27 26 43 26h104c46 73 108 128 211 128c25 0 51 0 83 -7c5 -1 11 -7 12 -12zM37 192h96h-1l48 96h-85c-4 0 -12 -5 -14 -9zM352 31v85v0c-28 -14 -64 -32 -96 -47v0v-96
l87 44c4 1 9 10 9 14zM250 101c103 52 230 100 230 245c0 21 0 41 -4 66c-24 4 -44 4 -66 4c-145 0 -193 -126 -245 -230c41 -12 72 -44 85 -85zM102 128c25 0 49 -10 64 -25c51 -52 38 -163 -134 -167v0h-32v32v0c2 121 54 160 102 160zM155 19c10 22 1 48 -12 61
c-9 10 -25 16 -41 16c-71 0 -70 -124 -70 -128c66 1 110 19 123 51z" />
    <glyph glyph-name="sensor" unicode="&#xe028;" horiz-adv-x="448" 
d="M384 416c35 0 64 -29 64 -64v-320c0 -35 -29 -64 -64 -64h-320c-35 0 -64 29 -64 64v320c0 35 29 64 64 64h320zM416 32v320c0 18 -14 32 -32 32h-320c-18 0 -32 -14 -32 -32v-320c0 -18 14 -32 32 -32h320c18 0 32 14 32 32zM112 320c9 0 16 -7 16 -16v-128
c0 -9 -7 -16 -16 -16s-16 7 -16 16v128c0 9 7 16 16 16zM176 320c9 0 16 -7 16 -16v-128c0 -9 -7 -16 -16 -16s-16 7 -16 16v128c0 9 7 16 16 16zM240 320c9 0 16 -7 16 -16v-128c0 -9 -7 -16 -16 -16s-16 7 -16 16v128c0 9 7 16 16 16z" />
    <glyph glyph-name="sensor-triangle-exclamation" unicode="&#xe029;" horiz-adv-x="640" 
d="M224 304c0 9 7 16 16 16s16 -7 16 -16v-128c0 -9 -7 -16 -16 -16s-16 7 -16 16v128zM160 304c0 9 7 16 16 16s16 -7 16 -16v-128c0 -9 -7 -16 -16 -16s-16 7 -16 16v128zM234 0c1 -3 2 -7 4 -11c5 -7 10 -15 16 -21h-190c-35 0 -64 29 -64 64v320c0 35 29 64 64 64h320
c35 0 64 -29 64 -64c-11 0 -22 -2 -32 -5v5c0 18 -14 32 -32 32h-320c-18 0 -32 -14 -32 -32v-320c0 -18 14 -32 32 -32h170zM630 80c13 -23 13 -52 0 -75s-38 -37 -65 -37h-234c-27 0 -52 14 -65 37s-13 52 0 75l117 203c14 23 38 37 65 37s51 -14 65 -37zM565 0
c33 0 54 35 37 64l-117 203c-8 13 -22 21 -37 21s-29 -8 -37 -21l-117 -203c-17 -29 4 -64 37 -64h234zM96 304c0 9 7 16 16 16s16 -7 16 -16v-128c0 -9 -7 -16 -16 -16s-16 7 -16 16v128zM448 72c13 0 24 -11 24 -24s-11 -24 -24 -24s-24 11 -24 24s11 24 24 24zM448 96
c-9 0 -16 7 -16 16v96c0 9 7 16 16 16s16 -7 16 -16v-96c0 -9 -7 -16 -16 -16z" />
    <glyph glyph-name="sensor-fire" unicode="&#xe02a;" horiz-adv-x="640" 
d="M544 294c8 -7 96 -89 96 -166c0 -88 -72 -160 -160 -160s-160 72 -160 160c0 16 6 90 124 198c14 -13 38 -34 65 -66c13 14 22 22 35 34zM480 0c71 0 128 57 128 128c0 24 -25 81 -64 122c-8 -8 -16 -17 -24 -26l-13 -15l-12 16c-15 20 -33 39 -51 57
c-53 -51 -92 -116 -92 -154c0 -71 57 -128 128 -128zM160 304c0 9 7 16 16 16s16 -7 16 -16v-128c0 -9 -7 -16 -16 -16s-16 7 -16 16v128zM64 0h273c11 -12 23 -23 37 -32h-310c-35 0 -64 29 -64 64v320c0 35 29 64 64 64h320c30 0 55 -20 62 -49c-28 -21 -21 -16 -30 -24v9
c0 18 -14 32 -32 32h-320c-18 0 -32 -14 -32 -32v-320c0 -18 14 -32 32 -32zM224 304c0 9 7 16 16 16s16 -7 16 -16v-128c0 -9 -7 -16 -16 -16s-16 7 -16 16v128zM96 304c0 9 7 16 16 16s16 -7 16 -16v-128c0 -9 -7 -16 -16 -16s-16 7 -16 16v128zM524 191
c25 -39 25 -39 28 -45c19 -35 9 -78 -23 -99c-14 -10 -31 -15 -48 -15c-47 0 -82 34 -82 79c0 31 18 50 59 98c29 -33 23 -26 40 -47zM481 64c33 0 65 31 38 74l-22 -25s-36 44 -38 47c-19 -22 -28 -34 -28 -49c0 -29 22 -47 50 -47z" />
    <glyph glyph-name="sensor-on" unicode="&#xe02b;" horiz-adv-x="640" 
d="M112 320c9 0 16 -7 16 -16v-128c0 -9 -7 -16 -16 -16s-16 7 -16 16v128c0 9 7 16 16 16zM176 320c9 0 16 -7 16 -16v-128c0 -9 -7 -16 -16 -16s-16 7 -16 16v128c0 9 7 16 16 16zM240 320c9 0 16 -7 16 -16v-128c0 -9 -7 -16 -16 -16s-16 7 -16 16v128c0 9 7 16 16 16z
M384 416c35 0 64 -29 64 -64v-320c0 -35 -29 -64 -64 -64h-320c-35 0 -64 29 -64 64v320c0 35 29 64 64 64h320zM416 32v320c0 18 -14 32 -32 32h-320c-18 0 -32 -14 -32 -32v-320c0 -18 14 -32 32 -32h320c18 0 32 14 32 32zM600 30c8 -5 10 -15 6 -22c-3 -5 -9 -8 -14 -8
c-3 0 -6 1 -8 2l-80 48c-8 5 -11 14 -6 22s15 10 22 6zM513 305c-5 0 -11 3 -14 8c-4 7 -2 17 6 22l79 47c7 4 17 2 22 -6c4 -7 2 -17 -6 -22l-79 -47c-2 -1 -5 -2 -8 -2zM624 208c9 0 16 -7 16 -16s-7 -16 -16 -16h-96c-9 0 -16 7 -16 16s7 16 16 16h96z" />
    <glyph glyph-name="sensor-cloud" unicode="&#xe02c;" horiz-adv-x="640" 
d="M586 154c41 -20 62 -66 51 -111c-10 -44 -50 -75 -96 -75h-186c-49 0 -90 35 -98 83c-7 48 21 94 67 109c5 38 31 69 67 81c36 11 75 1 101 -26c8 3 15 4 23 4c36 0 67 -28 71 -65zM541 0c35 0 64 27 67 61c2 35 -22 66 -56 71c7 19 0 40 -18 50c-17 9 -39 5 -51 -11
c-12 32 -48 50 -81 40s-53 -44 -46 -78h-1c-24 1 -47 -12 -59 -33s-12 -46 0 -67s35 -33 59 -33h186zM224 304c0 9 7 16 16 16s16 -7 16 -16v-128c0 -9 -7 -16 -16 -16s-16 7 -16 16v128zM64 0h179c7 -12 16 -23 27 -32h-206c-35 0 -64 29 -64 64v320c0 35 29 64 64 64h320
c35 0 64 -29 64 -64v-78c-9 2 -18 3 -27 3h-5v75c0 18 -14 32 -32 32h-320c-18 0 -32 -14 -32 -32v-320c0 -18 14 -32 32 -32zM160 304c0 9 7 16 16 16s16 -7 16 -16v-128c0 -9 -7 -16 -16 -16s-16 7 -16 16v128zM96 304c0 9 7 16 16 16s16 -7 16 -16v-128
c0 -9 -7 -16 -16 -16s-16 7 -16 16v128z" />
    <glyph glyph-name="siren" unicode="&#xe02d;" horiz-adv-x="448" 
d="M416 64c18 0 32 -14 32 -32v-32c0 -18 -14 -32 -32 -32h-384c-18 0 -32 14 -32 32v32c0 18 14 32 32 32h384zM416 0v32h-384v-32h384zM52 96c-10 0 -17 8 -16 18l21 168c5 40 39 70 80 70h174c41 0 75 -30 80 -70l21 -168c1 -10 -6 -18 -16 -18c-8 0 -15 6 -16 14
l-21 168c-3 24 -23 42 -47 42h-175c-25 0 -45 -18 -48 -42l-21 -168c-1 -8 -8 -14 -16 -14zM128 274c2 9 10 15 18 14c9 -2 15 -10 14 -18l-24 -160c-1 -8 -8 -14 -16 -14h-2c-9 2 -15 10 -14 18z" />
    <glyph glyph-name="siren-on" unicode="&#xe02e;" horiz-adv-x="640" 
d="M528 352c-7 0 -14 5 -16 12c-1 7 2 15 9 18l64 32c8 4 17 1 21 -7s1 -17 -7 -21l-64 -32c-2 -1 -5 -2 -7 -2zM41 386c-8 4 -11 13 -7 21s13 11 21 7l64 -32c8 -4 11 -13 7 -21s-13 -11 -21 -7zM624 256c9 0 16 -7 16 -16s-7 -16 -16 -16h-64c-9 0 -16 7 -16 16
s7 16 16 16h64zM80 256c9 0 16 -7 16 -16s-7 -16 -16 -16h-64c-9 0 -16 7 -16 16s7 16 16 16h64zM512 64c18 0 32 -14 32 -32v-32c0 -18 -14 -32 -32 -32h-384c-18 0 -32 14 -32 32v32c0 18 14 32 32 32h384zM512 0v32h-384v-32h384zM148 96c-10 0 -17 8 -16 18l21 168
c5 40 39 70 80 70h174c41 0 75 -30 80 -70l21 -168c1 -10 -6 -18 -16 -18c-8 0 -15 6 -16 14l-21 168c-3 24 -23 42 -47 42h-175c-25 0 -45 -18 -48 -42l-21 -168c-1 -8 -8 -14 -16 -14zM224 274c2 9 10 15 18 14c9 -2 15 -10 14 -18l-24 -160c-1 -8 -8 -14 -16 -14h-2
c-9 2 -15 10 -14 18z" />
    <glyph glyph-name="solar-system" unicode="&#xe02f;" 
d="M380 324c12 -11 15 -28 9 -43c41 -61 35 -142 -14 -196c-50 -55 -129 -69 -194 -34s-98 109 -80 180s82 121 155 121c28 0 54 -8 78 -21c15 8 34 6 46 -7zM347 102c42 41 49 106 18 156c-14 -5 -30 -1 -41 10c-11 10 -13 24 -10 38c-18 9 -37 14 -58 14
c-52 0 -98 -31 -118 -79s-9 -103 28 -139c48 -49 132 -49 181 0zM437 373c87 -87 98 -220 34 -319c15 -24 11 -55 -10 -73c-22 -18 -53 -18 -74 0s-26 49 -11 73s45 33 71 21c51 84 43 191 -22 265c-62 70 -160 95 -247 62c0 0 -11 -4 -19 7c-5 8 -1 19 8 23
c93 35 199 12 270 -59zM424 0c13 0 24 11 24 24s-11 24 -24 24s-24 -11 -24 -24s11 -24 24 -24zM351 -25c7 -11 -1 -21 -7 -23c-93 -34 -198 -12 -269 59c-87 87 -98 220 -34 319c-15 24 -10 55 11 73c21 19 53 19 74 0c21 -18 25 -49 10 -73c-15 -23 -45 -33 -70 -21
c-22 -35 -34 -75 -34 -117c0 -75 38 -146 101 -187c59 -39 133 -48 200 -23c7 2 14 -1 18 -7zM88 384c-13 0 -24 -11 -24 -24s11 -24 24 -24s24 11 24 24s-11 24 -24 24zM256 272c44 0 80 -36 80 -80s-36 -80 -80 -80s-80 36 -80 80s36 80 80 80zM256 144c27 0 48 22 48 48
s-22 48 -48 48s-48 -22 -48 -48s22 -48 48 -48z" />
    <glyph glyph-name="circle-sort" unicode="&#xe030;" 
d="M269 347l91 -92c12 -11 3 -31 -13 -31h-182c-17 0 -25 20 -13 31l91 92c3 3 8 5 13 5s10 -2 13 -5zM198 256h116l-58 58zM347 160c16 0 25 -20 13 -31l-91 -92c-3 -3 -8 -5 -13 -5s-10 2 -13 5l-91 92c-12 11 -4 31 13 31h182zM256 70l58 58h-116zM256 432
c133 0 240 -107 240 -240s-107 -240 -240 -240s-240 107 -240 240s107 240 240 240zM256 -16c115 0 208 93 208 208s-93 208 -208 208s-208 -93 -208 -208s93 -208 208 -208z" />
    <glyph glyph-name="circle-sort-down" unicode="&#xe031;" 
d="M347 160c17 0 25 -20 13 -31l-91 -92c-3 -3 -8 -5 -13 -5s-10 2 -13 5l-91 92c-12 11 -4 31 13 31h182zM256 70l58 58h-116zM267 347l96 -96c6 -6 6 -16 0 -22s-16 -6 -22 0l-85 84l-85 -84c-6 -6 -16 -6 -22 0s-6 16 0 22l96 96c6 7 16 7 22 0zM256 432
c133 0 240 -107 240 -240s-107 -240 -240 -240s-240 107 -240 240s107 240 240 240zM256 -16c115 0 208 93 208 208s-93 208 -208 208s-208 -93 -208 -208s93 -208 208 -208z" />
    <glyph glyph-name="circle-sort-up" unicode="&#xe032;" 
d="M165 224c-17 0 -25 20 -13 31l91 92c3 3 8 5 13 5s10 -2 13 -5l91 -92c12 -11 3 -31 -13 -31h-182zM256 314l-58 -58h116zM341 155c6 6 16 6 22 0s6 -16 0 -22l-96 -96c-6 -6 -16 -6 -22 0l-96 96c-6 6 -6 16 0 22s16 6 22 0l85 -84zM256 432c133 0 240 -107 240 -240
s-107 -240 -240 -240s-240 107 -240 240s107 240 240 240zM256 -16c115 0 208 93 208 208s-93 208 -208 208s-208 -93 -208 -208s93 -208 208 -208z" />
    <glyph glyph-name="space-station-moon" unicode="&#xe033;" 
d="M208 296c13 0 24 -11 24 -24s-11 -24 -24 -24s-24 11 -24 24s11 24 24 24zM208 360c49 0 88 -39 88 -88s-39 -88 -88 -88s-88 39 -88 88s39 88 88 88zM208 216c31 0 56 25 56 56s-25 56 -56 56s-56 -25 -56 -56s25 -56 56 -56zM256 432c133 0 240 -107 240 -240
s-107 -240 -240 -240s-240 107 -240 240s107 240 240 240zM256 -16c88 0 164 56 194 134c-64 -15 -129 -22 -194 -22s-130 7 -194 22c30 -78 106 -134 194 -134zM52 153c127 -32 281 -32 408 0c3 12 4 25 4 39c0 115 -93 208 -208 208s-208 -93 -208 -208c0 -14 1 -27 4 -39
z" />
    <glyph glyph-name="space-station-moon-construction" unicode="&#xe034;" 
d="M120 272c0 49 39 88 88 88s88 -39 88 -88s-39 -88 -88 -88s-88 39 -88 88zM264 272c0 31 -25 56 -56 56s-56 -25 -56 -56s25 -56 56 -56s56 25 56 56zM184 272c0 13 11 24 24 24s24 -11 24 -24s-11 -24 -24 -24s-24 11 -24 24zM496 192c0 -27 -4 -42 -5 -50
c2 -8 -4 -15 -13 -17c-67 -19 -144 -29 -222 -29c-67 0 -134 8 -194 22c30 -78 105 -134 194 -134c57 0 111 23 150 64h-6c-9 0 -16 7 -16 16s7 16 16 16h40c6 0 11 -3 14 -9c3 -5 2 -11 -1 -16c-45 -65 -119 -103 -197 -103c-132 0 -240 108 -240 240s108 240 240 240
c71 0 138 -31 184 -86c4 -4 5 -12 2 -17s-8 -9 -14 -9h-60c-9 0 -16 7 -16 16s7 16 16 16h21c-37 31 -84 48 -133 48c-115 0 -208 -93 -208 -208c0 -13 1 -26 4 -39v0c125 -33 283 -33 408 0c1 5 3 12 3 23h-47c-9 0 -16 7 -16 16s7 16 16 16h64c9 0 16 -7 16 -16zM432 272
c9 0 16 -7 16 -16s-7 -16 -16 -16h-64c-9 0 -16 7 -16 16s7 16 16 16h64z" />
    <glyph glyph-name="sprinkler" unicode="&#xe035;" 
d="M16 320c9 0 16 -7 16 -16s-7 -16 -16 -16s-16 7 -16 16s7 16 16 16zM16 192c9 0 16 -7 16 -16s-7 -16 -16 -16s-16 7 -16 16s7 16 16 16zM16 448c9 0 16 -7 16 -16s-7 -16 -16 -16s-16 7 -16 16s7 16 16 16zM80 256c9 0 16 -7 16 -16s-7 -16 -16 -16s-16 7 -16 16
s7 16 16 16zM368 288c-9 0 -16 7 -16 16s7 16 16 16s16 -7 16 -16s-7 -16 -16 -16zM144 288c-9 0 -16 7 -16 16s7 16 16 16s16 -7 16 -16s-7 -16 -16 -16zM496 416c-9 0 -16 7 -16 16s7 16 16 16s16 -7 16 -16s-7 -16 -16 -16zM432 384c9 0 16 -7 16 -16s-7 -16 -16 -16
s-16 7 -16 16s7 16 16 16zM496 192c9 0 16 -7 16 -16s-7 -16 -16 -16s-16 7 -16 16s7 16 16 16zM80 384c9 0 16 -7 16 -16s-7 -16 -16 -16s-16 7 -16 16s7 16 16 16zM496 320c9 0 16 -7 16 -16s-7 -16 -16 -16s-16 7 -16 16s7 16 16 16zM398 192c7 0 13 -4 16 -10
s3 -13 -2 -18l-92 -103v-109c0 -9 -7 -16 -16 -16s-16 7 -16 16v122l79 86h-222l79 -86v-122c0 -9 -7 -16 -16 -16s-16 7 -16 16v109l-92 102c-4 6 -5 13 -2 19s9 10 16 10h126v176c0 9 7 16 16 16s16 -7 16 -16v-176h126zM432 256c9 0 16 -7 16 -16s-7 -16 -16 -16
s-16 7 -16 16s7 16 16 16z" />
    <glyph glyph-name="star-shooting" unicode="&#xe036;" 
d="M364 181c19 -3 27 -26 13 -39l-76 -74l18 -105c1 -7 -1 -14 -5 -19s-11 -8 -18 -8c-3 0 -7 1 -10 3l-94 49l-94 -49c-3 -2 -7 -3 -11 -3c-6 0 -13 3 -17 8s-6 12 -5 19l18 105l-76 74c-14 13 -6 36 13 39l104 15l47 96c4 7 12 12 21 12s17 -5 20 -12l47 -96zM267 79
l75 73l-104 15l-46 94l-46 -94l-104 -15l75 -73l-18 -103l93 48l92 -48zM240 352c-4 0 -8 2 -11 5c-7 6 -7 16 0 22l64 64c6 7 15 6 22 0s7 -16 0 -22l-64 -64c-3 -3 -7 -5 -11 -5zM325 261c-7 6 -7 16 0 22l160 160c6 7 15 6 22 0s7 -16 0 -22l-160 -160
c-3 -3 -7 -5 -11 -5s-8 2 -11 5zM485 251c6 7 15 6 22 0s7 -16 0 -22l-64 -64c-3 -3 -7 -5 -11 -5s-8 2 -11 5c-7 6 -7 16 0 22z" />
    <glyph glyph-name="starfighter" unicode="&#xe037;" horiz-adv-x="640" 
d="M176 144c-9 0 -16 -7 -16 -16v-128h48c9 0 16 -7 16 -16v-32c0 -9 -7 -16 -16 -16s-16 7 -16 16v16h-32c-14 0 -24 8 -29 20l-67 28v0c0 -9 -7 -16 -16 -16s-16 7 -16 16v272h-16c-9 0 -16 7 -16 16s7 16 16 16h16v16c0 9 7 16 16 16s16 -7 16 -16v-16h16
c9 0 16 -7 16 -16s-7 -16 -16 -16h-16v-160h64c0 13 5 25 14 34s21 14 34 14h32c9 0 16 -7 16 -16s-7 -16 -16 -16h-32zM128 24v72h-64v-45zM370 413l29 -236c1 -5 1 -11 1 -16v-153c0 -11 -4 -21 -12 -28c-7 -8 -17 -12 -28 -12h-80c-11 0 -21 4 -28 12c-8 7 -12 17 -12 28
v153c0 5 0 11 1 16l29 236c2 10 6 19 14 25c7 6 16 10 26 10h20c10 0 19 -4 26 -10c8 -6 12 -15 14 -25zM368 8v159l-30 242c-1 4 -4 7 -8 7h-20c-4 0 -7 -3 -8 -7l-30 -242v-159c0 -2 0 -5 2 -6s4 -2 6 -2h80c2 0 5 0 6 2s2 4 2 6zM624 320c9 0 16 -7 16 -16
s-7 -16 -16 -16h-16v-272c0 -9 -7 -16 -16 -16s-16 7 -16 16v0l-67 -28c-5 -12 -15 -20 -29 -20h-32v-16c0 -9 -7 -16 -16 -16s-16 7 -16 16v32c0 9 7 16 16 16h48v128c0 9 -7 16 -16 16h-32c-9 0 -16 7 -16 16s7 16 16 16h32c13 0 25 -5 34 -14s14 -21 14 -34h64v160h-16
c-9 0 -16 7 -16 16s7 16 16 16h16v16c0 9 7 16 16 16s16 -7 16 -16v-16h16zM576 51v45h-64v-72zM320 224c9 0 16 -7 16 -16v-64c0 -9 -7 -16 -16 -16s-16 7 -16 16v64c0 9 7 16 16 16z" />
    <glyph glyph-name="starfighter-twin-ion-engine" unicode="&#xe038;" horiz-adv-x="576" 
d="M560 416c9 0 16 -7 16 -16v-416c0 -9 -7 -16 -16 -16s-16 7 -16 16v150l-117 -22h-1c-28 -48 -79 -80 -138 -80s-110 32 -138 80h-1l-117 22v-150c0 -9 -7 -16 -16 -16s-16 7 -16 16v416c0 9 7 16 16 16s16 -7 16 -16v-150l117 22h1c28 47 79 80 138 80s110 -33 138 -80
h1l117 -22v150c0 9 7 16 16 16zM135 147c-4 15 -7 29 -7 45s3 30 7 45l-103 -20v-50zM288 64c71 0 128 57 128 128s-57 128 -128 128s-128 -57 -128 -128s57 -128 128 -128zM544 167v50l-103 20c4 -15 7 -29 7 -45s-3 -30 -7 -45zM343 224c3 -5 5 -10 7 -16h34
c9 0 16 -7 16 -16s-7 -16 -16 -16h-34c-2 -6 -4 -11 -7 -16l24 -25c6 -6 6 -16 0 -22c-3 -3 -7 -5 -11 -5s-8 2 -11 5l-25 24c-5 -3 -10 -5 -16 -7v-34c0 -9 -7 -16 -16 -16s-16 7 -16 16v34c-6 2 -11 4 -16 7l-25 -24c-3 -3 -7 -5 -11 -5s-8 2 -11 5c-6 6 -6 16 0 22l24 25
c-3 5 -5 10 -7 16h-34c-9 0 -16 7 -16 16s7 16 16 16h34c2 6 4 11 7 16l-24 25c-6 6 -6 16 0 22s16 6 22 0l25 -24c5 3 10 5 16 7v34c0 9 7 16 16 16s16 -7 16 -16v-34c6 -2 11 -4 16 -7l25 24c6 6 16 6 22 0s6 -16 0 -22zM288 160c18 0 32 14 32 32s-14 32 -32 32
s-32 -14 -32 -32s14 -32 32 -32z" />
    <glyph glyph-name="starship" unicode="&#xe039;" horiz-adv-x="640" 
d="M448 384c106 0 192 -86 192 -192s-86 -192 -192 -192c-84 0 -155 54 -181 129l-52 5l-56 -38h47c27 0 48 -22 48 -48s-21 -48 -48 -48h-174c-18 0 -32 14 -32 32v32c0 18 14 32 32 32h70l63 42l-23 3c-26 2 -46 24 -46 51s20 49 46 51l23 3l-63 42h-70
c-18 0 -32 14 -32 32v32c0 18 14 32 32 32h174c27 0 48 -22 48 -48s-21 -48 -48 -48h-47l56 -38l52 5c26 75 97 129 181 129zM32 320h174c9 0 16 7 16 16s-7 16 -16 16h-174v-32zM206 64h-174v-32h174c9 0 16 7 16 16s-7 16 -16 16zM259 162c-2 10 -3 20 -3 30s1 20 3 30
l-114 -10c-10 -1 -17 -10 -17 -20s7 -19 17 -20zM448 32c88 0 160 72 160 160s-72 160 -160 160s-160 -72 -160 -160s72 -160 160 -160zM448 256c35 0 64 -29 64 -64s-29 -64 -64 -64s-64 29 -64 64s29 64 64 64zM448 160c18 0 32 14 32 32s-14 32 -32 32s-32 -14 -32 -32
s14 -32 32 -32z" />
    <glyph glyph-name="starship-freighter" unicode="&#xe03a;" horiz-adv-x="576" 
d="M80 208c9 0 16 -7 16 -16s-7 -16 -16 -16s-16 7 -16 16s7 16 16 16zM112 272c-9 0 -16 7 -16 16s7 16 16 16s16 -7 16 -16s-7 -16 -16 -16zM112 112c9 0 16 -7 16 -16s-7 -16 -16 -16s-16 7 -16 16s7 16 16 16zM560 208h-112v-16v0v0v-16h112c9 0 16 -7 16 -16v-58
c0 -13 -8 -25 -21 -30l-98 -35c20 -15 28 -40 20 -63c-7 -23 -29 -38 -53 -38h-56c-18 0 -35 9 -45 23l-17 23c-26 -9 -54 -14 -82 -14c-29 0 -58 5 -85 17c-143 62 -139 207 -139 207s-4 145 139 207c27 12 56 17 85 17c30 0 60 -5 87 -16l244 -88c13 -5 21 -17 21 -30v-58
c0 -9 -7 -16 -16 -16zM224 0c21 0 42 4 62 10l-62 86v0c-53 0 -96 43 -96 96s43 96 96 96s96 -43 96 -96c0 -10 -2 -20 -5 -30l61 -85c25 32 40 71 40 115v0c0 95 -70 174 -161 189c-10 2 -20 3 -30 3h-1c-26 0 -50 -5 -72 -14c-121 -53 -120 -172 -120 -177v-2
c0 -5 -1 -124 120 -177c22 -9 47 -14 72 -14zM288 192c0 35 -29 64 -64 64s-64 -29 -64 -64s29 -64 64 -64s64 29 64 64zM424 -32c13 0 24 11 24 24s-11 24 -24 24h-44l-82 115c-11 -13 -24 -22 -39 -28l90 -125c4 -6 11 -10 19 -10h56zM544 144h-101
c-8 -35 -24 -68 -47 -95v0l148 53v42zM442 240h102v42l-148 54c23 -28 39 -61 46 -96z" />
    <glyph glyph-name="sword-laser" unicode="&#xe03b;" 
d="M269 132l15 -15c3 -3 3 -8 0 -11l-11 -12c-3 -3 -8 -3 -12 0l-5 6l-57 -57c3 -3 3 -8 0 -11l-80 -80c-21 -21 -56 -21 -77 0l-26 26c-21 21 -21 56 0 77l80 80c3 3 8 3 12 0l1 -1l56 56l-5 6c-3 3 -3 8 0 12l11 11c3 3 8 3 11 0l37 -37l27 -27zM96 -25l64 63l-51 51l-7 7
l-63 -64c-9 -8 -9 -23 0 -32l25 -25c9 -9 24 -9 32 0zM177 66l11 11l-45 46l-12 -12zM199 89l12 11l-46 45l-11 -11zM222 111l11 12l-45 45l-11 -11zM502 436c13 -14 13 -35 0 -49l-200 -219c-6 -6 -17 -7 -23 0c-6 6 -7 16 -1 22l201 218c2 2 1 5 0 6s-2 2 -3 2
s-3 -1 -4 -1l-218 -201c-6 -6 -16 -5 -22 1v0c-7 6 -6 17 0 23l219 200c7 7 16 10 25 10h1c10 -1 19 -5 25 -12z" />
    <glyph glyph-name="sword-laser-alt" unicode="&#xe03c;" 
d="M502 436c13 -14 13 -35 1 -49l-146 -158c-3 -3 -7 -5 -12 -5c-14 0 -21 17 -11 27l145 157c1 2 1 5 0 6c-2 2 -5 2 -7 1l-204 -187c-3 -2 -7 -4 -11 -4v0c-15 0 -22 18 -11 28l205 186c7 7 16 10 26 10c10 -1 19 -5 25 -12zM322 191c13 -1 19 -17 10 -26l-213 -213
c-21 -21 -56 -21 -77 0l-26 26c-21 21 -21 56 0 77l132 132c3 3 7 5 12 5h163zM39 0l5 -5l82 81l-22 22l-65 -66c-9 -8 -9 -23 0 -32zM96 -25l66 65l-22 22l-81 -82l5 -5c9 -9 24 -9 32 0zM184 63l98 97h-116l-39 -40z" />
    <glyph glyph-name="swords-laser" unicode="&#xe03d;" horiz-adv-x="640" 
d="M472 415l-94 -87c-7 -6 -16 -6 -22 0v0c-7 6 -7 17 0 24l95 86c7 7 16 10 25 10h1c14 -1 27 -10 32 -22c6 -14 3 -29 -6 -39l-75 -81c-4 -4 -9 -6 -14 -5h-1c-12 2 -17 17 -9 26l75 82c2 1 1 4 0 5s-2 2 -3 2s-3 -1 -4 -1zM264 175c6 7 17 7 24 0v0c5 -6 5 -16 -1 -22
l-18 -20l15 -16c2 -1 2 -3 2 -5s0 -4 -2 -6l-11 -11c-3 -3 -8 -3 -12 0l-5 5l-57 -56c2 -2 3 -4 3 -6s-1 -4 -3 -5l-80 -81c-21 -21 -56 -21 -77 0l-26 26c-10 10 -16 24 -16 39c0 14 6 28 16 38l80 80c3 4 8 4 11 0l2 -1l56 57l-5 5c-2 2 -3 4 -3 6s1 4 3 6l11 11
c3 3 8 3 11 0l14 -14l23 21c7 6 17 5 23 -1v0c6 -7 5 -17 -1 -23l-22 -20l27 -27zM96 -25l64 63l-6 6l-45 45l-7 7l-63 -63c-5 -5 -7 -10 -7 -16s2 -12 7 -16l25 -26c9 -9 24 -9 32 0zM177 66l11 12l-45 45l-12 -11zM199 89l11 11l-45 46l-11 -12zM222 112l11 11l-45 45
l-11 -11zM624 55c10 -10 16 -24 16 -39c0 -14 -6 -28 -16 -38l-26 -26c-21 -21 -56 -21 -77 0l-132 132c-3 3 -5 7 -5 12v22l-1 -1l-245 269c-7 8 -10 17 -10 27c1 14 10 26 23 32c13 5 28 3 38 -7l196 -180c1 13 17 19 26 9zM384 164v51l-216 199c-2 2 -5 2 -6 0
c-2 -1 -2 -4 -1 -6zM416 102l40 -40l58 58l-98 98v-116zM576 -25l5 5l-81 82l-22 -22l66 -65c8 -9 23 -9 32 0zM601 0c9 9 9 24 0 32l-65 66l-22 -22l82 -81z" />
    <glyph glyph-name="telescope" unicode="&#xe03e;" horiz-adv-x="640" 
d="M425 180c8 3 17 -1 20 -10c3 -8 -1 -17 -10 -20l-45 -15c-2 -17 -10 -31 -21 -42l45 -136c3 -8 -2 -17 -10 -20c-2 -1 -4 -1 -5 -1c-7 0 -13 4 -15 11l-43 129c-7 -2 -14 -4 -22 -4s-15 2 -22 4l-43 -129c-2 -7 -8 -11 -15 -11c-2 0 -4 0 -5 1c-9 3 -13 12 -10 20l45 136
c-2 1 -4 4 -6 6l-132 -40c-3 -1 -6 -1 -10 -1c-12 0 -23 7 -28 18s-11 27 -17 43c-7 17 -14 36 -20 49c-6 15 1 32 16 39l280 143c8 4 18 1 22 -7c4 -7 0 -17 -7 -21l-281 -143c5 -12 13 -31 20 -49c6 -15 12 -31 16 -41l127 39c-1 5 -2 10 -2 16c0 40 32 72 72 72
c31 0 58 -20 68 -48zM319 104c22 0 40 18 40 40s-18 40 -40 40s-40 -18 -40 -40s18 -40 40 -40zM31 126l18 -44c3 -8 -1 -18 -9 -21c-2 -1 -4 -1 -6 -1c-6 0 -12 3 -15 9l-18 44c-3 9 1 18 9 21c8 4 17 0 21 -8zM638 245c1 -3 2 -8 2 -11c0 -12 -8 -24 -19 -28l-104 -44
c-4 -1 -8 -2 -12 -2c-11 0 -23 8 -28 19l-76 184c-1 3 -2 8 -2 12c0 11 8 23 18 28l105 43c15 6 34 -2 39 -16zM507 191l101 44l-76 182l-102 -44z" />
    <glyph glyph-name="temperature-arrow-down" unicode="&#xe03f;" 
d="M128 93c22 -8 35 -30 31 -53s-24 -40 -47 -40s-43 17 -47 40s9 45 31 53v51c0 9 7 16 16 16s16 -7 16 -16v-51zM192 368v-242c43 -44 43 -114 -1 -157c-44 -44 -114 -44 -158 0c-44 43 -44 113 -1 157v242c0 44 36 80 80 80s80 -36 80 -80zM188 23c11 32 -1 68 -28 89
v256c0 27 -22 48 -48 48s-48 -21 -48 -48v-256c-27 -21 -39 -56 -28 -89s42 -55 76 -55s65 22 76 55zM475 91c7 -6 7 -16 0 -22l-96 -96c-6 -7 -16 -7 -22 0l-96 96c-7 6 -7 16 0 22c3 3 7 5 11 5s8 -2 11 -5l69 -68v377c0 9 7 16 16 16s16 -7 16 -16v-377l69 68
c6 7 16 7 22 0z" />
    <glyph glyph-name="temperature-arrow-up" unicode="&#xe040;" 
d="M192 368v-242c43 -44 43 -114 -1 -157c-44 -44 -114 -44 -158 0c-44 43 -44 113 -1 157v242c0 44 36 80 80 80s80 -36 80 -80zM188 23c11 32 -1 68 -28 89v256c0 27 -22 48 -48 48s-48 -21 -48 -48v-256c-27 -21 -39 -56 -28 -89s42 -55 76 -55s65 22 76 55zM128 93
c22 -8 35 -30 31 -53s-24 -40 -47 -40s-43 17 -47 40s9 45 31 53v275c0 9 7 16 16 16s16 -7 16 -16v-275zM475 315c7 -6 7 -16 0 -22c-3 -3 -7 -5 -11 -5s-8 2 -11 5l-69 68v-377c0 -9 -7 -16 -16 -16s-16 7 -16 16v377l-69 -68c-6 -7 -15 -6 -22 0s-7 16 0 22l96 96
c6 7 16 7 22 0z" />
    <glyph glyph-name="trailer" unicode="&#xe041;" horiz-adv-x="640" 
d="M624 96c9 0 16 -7 16 -16s-7 -16 -16 -16h-289c-8 0 -15 7 -15 15v2c0 8 7 15 15 15h177v238c0 39 -33 50 -48 50h-382c-39 0 -50 -33 -50 -48v-207c0 -22 16 -29 21 -31c7 -3 11 -9 11 -16v0c0 -10 -10 -18 -20 -15c-5 2 -44 16 -44 63v203c0 49 37 83 80 83h381
c49 0 83 -37 83 -80v-240h80zM192 160c53 0 96 -43 96 -96s-43 -96 -96 -96s-96 43 -96 96s43 96 96 96zM192 0c35 0 64 29 64 64s-29 64 -64 64s-64 -29 -64 -64s29 -64 64 -64zM416 144c0 -9 -7 -16 -16 -16s-16 7 -16 16v192c0 9 7 16 16 16s16 -7 16 -16v-192zM320 336
v-160c0 -9 -7 -16 -16 -16s-16 7 -16 16v160c0 9 7 16 16 16s16 -7 16 -16zM224 208c0 -9 -7 -16 -16 -16s-16 7 -16 16v128c0 9 7 16 16 16s16 -7 16 -16v-128zM128 176c0 -9 -7 -16 -16 -16s-16 7 -16 16v160c0 9 7 16 16 16s16 -7 16 -16v-160z" />
    <glyph glyph-name="transporter" unicode="&#xe042;" 
d="M124 166c-5 -7 -15 -8 -22 -2c-7 5 -8 15 -2 22l51 62c21 25 53 40 86 40h38c33 0 65 -15 86 -40l51 -62c6 -7 5 -17 -2 -22c-3 -3 -6 -4 -10 -4c-5 0 -9 2 -12 6l-52 61c-4 6 -10 11 -16 15v-194c0 -9 -7 -16 -16 -16s-16 7 -16 16v207c-4 0 -9 1 -13 1h-38
c-4 0 -9 -1 -13 -1v-207c0 -9 -7 -16 -16 -16s-16 7 -16 16v194c-6 -4 -12 -9 -16 -15zM256 320c-35 0 -64 29 -64 64s29 64 64 64s64 -29 64 -64s-29 -64 -64 -64zM256 416c-18 0 -32 -14 -32 -32s14 -32 32 -32s32 14 32 32s-14 32 -32 32zM80 352c9 0 16 -7 16 -16
s-7 -16 -16 -16h-16v-16c0 -9 -7 -16 -16 -16s-16 7 -16 16v16h-16c-9 0 -16 7 -16 16s7 16 16 16h16v16c0 9 7 16 16 16s16 -7 16 -16v-16h16zM496 416c9 0 16 -7 16 -16s-7 -16 -16 -16h-16v-16c0 -9 -7 -16 -16 -16s-16 7 -16 16v16h-16c-9 0 -16 7 -16 16s7 16 16 16h16
v16c0 9 7 16 16 16s16 -7 16 -16v-16h16zM368 0c26 0 48 -22 48 -48c0 -9 -7 -16 -16 -16s-16 7 -16 16s-7 16 -16 16h-224c-9 0 -16 -7 -16 -16s-7 -16 -16 -16s-16 7 -16 16c0 26 22 48 48 48h224z" />
    <glyph glyph-name="transporter-1" unicode="&#xe043;" 
d="M124 166c-5 -7 -15 -8 -22 -2c-7 5 -8 15 -2 22l51 62c21 25 53 40 86 40h38c33 0 65 -15 86 -40l51 -62c6 -7 5 -17 -2 -22c-3 -3 -6 -4 -10 -4c-5 0 -9 2 -12 6l-52 61c-4 6 -10 11 -16 15v-66c0 -9 -7 -16 -16 -16s-16 7 -16 16v79c-4 0 -9 1 -13 1h-38
c-4 0 -9 -1 -13 -1v-79c0 -9 -7 -16 -16 -16s-16 7 -16 16v66c-6 -4 -12 -9 -16 -15zM336 128c9 0 16 -7 16 -16s-7 -16 -16 -16h-160c-9 0 -16 7 -16 16s7 16 16 16h160zM496 288c9 0 16 -7 16 -16s-7 -16 -16 -16h-16v-16c0 -9 -7 -16 -16 -16s-16 7 -16 16v16h-16
c-9 0 -16 7 -16 16s7 16 16 16h16v16c0 9 7 16 16 16s16 -7 16 -16v-16h16zM256 320c-35 0 -64 29 -64 64s29 64 64 64s64 -29 64 -64s-29 -64 -64 -64zM256 416c-18 0 -32 -14 -32 -32s14 -32 32 -32s32 14 32 32s-14 32 -32 32zM368 0c26 0 48 -22 48 -48
c0 -9 -7 -16 -16 -16s-16 7 -16 16s-7 16 -16 16h-224c-9 0 -16 -7 -16 -16s-7 -16 -16 -16s-16 7 -16 16c0 26 22 48 48 48h224zM336 64c9 0 16 -7 16 -16s-7 -16 -16 -16h-160c-9 0 -16 7 -16 16s7 16 16 16h160zM80 96c9 0 16 -7 16 -16s-7 -16 -16 -16h-16v-16
c0 -9 -7 -16 -16 -16s-16 7 -16 16v16h-16c-9 0 -16 7 -16 16s7 16 16 16h16v16c0 9 7 16 16 16s16 -7 16 -16v-16h16z" />
    <glyph glyph-name="transporter-2" unicode="&#xe044;" 
d="M112 160c-9 0 -16 7 -16 16s7 16 16 16h288c9 0 16 -7 16 -16s-7 -16 -16 -16h-288zM176 227c-6 -7 -16 -8 -23 -2s-8 16 -2 23c21 25 53 40 86 40h38c33 0 65 -15 86 -40c6 -7 5 -17 -2 -23c-3 -2 -7 -4 -10 -4c-5 0 -9 2 -13 6c-15 19 -37 29 -61 29h-38
c-24 0 -46 -10 -61 -29zM256 320c-35 0 -64 29 -64 64s29 64 64 64s64 -29 64 -64s-29 -64 -64 -64zM256 416c-18 0 -32 -14 -32 -32s14 -32 32 -32s32 14 32 32s-14 32 -32 32zM336 128c9 0 16 -7 16 -16s-7 -16 -16 -16h-160c-9 0 -16 7 -16 16s7 16 16 16h160zM80 416
c9 0 16 -7 16 -16s-7 -16 -16 -16h-16v-16c0 -9 -7 -16 -16 -16s-16 7 -16 16v16h-16c-9 0 -16 7 -16 16s7 16 16 16h16v16c0 9 7 16 16 16s16 -7 16 -16v-16h16zM496 96c9 0 16 -7 16 -16s-7 -16 -16 -16h-16v-16c0 -9 -7 -16 -16 -16s-16 7 -16 16v16h-16
c-9 0 -16 7 -16 16s7 16 16 16h16v16c0 9 7 16 16 16s16 -7 16 -16v-16h16zM368 0c26 0 48 -22 48 -48c0 -9 -7 -16 -16 -16s-16 7 -16 16s-7 16 -16 16h-224c-9 0 -16 -7 -16 -16s-7 -16 -16 -16s-16 7 -16 16c0 26 22 48 48 48h224zM336 64c9 0 16 -7 16 -16
s-7 -16 -16 -16h-160c-9 0 -16 7 -16 16s7 16 16 16h160z" />
    <glyph glyph-name="transporter-3" unicode="&#xe045;" 
d="M144 224c-9 0 -16 7 -16 16s7 16 16 16h224c9 0 16 -7 16 -16s-7 -16 -16 -16h-224zM176 288c-9 0 -16 7 -16 16s7 16 16 16h160c9 0 16 -7 16 -16s-7 -16 -16 -16h-160zM80 320c9 0 16 -7 16 -16s-7 -16 -16 -16h-16v-16c0 -9 -7 -16 -16 -16s-16 7 -16 16v16h-16
c-9 0 -16 7 -16 16s7 16 16 16h16v16c0 9 7 16 16 16s16 -7 16 -16v-16h16zM216 353c-8 -3 -17 1 -20 10c-3 7 -4 14 -4 21c0 35 29 64 64 64s64 -29 64 -64c0 -7 -1 -14 -4 -21c-2 -7 -8 -11 -15 -11c-1 0 -3 0 -5 1c-8 3 -13 12 -10 20c1 4 2 7 2 11c0 18 -14 32 -32 32
s-32 -14 -32 -32c0 -4 1 -7 2 -11c3 -8 -2 -17 -10 -20zM400 192c9 0 16 -7 16 -16s-7 -16 -16 -16h-288c-9 0 -16 7 -16 16s7 16 16 16h288zM368 0c26 0 48 -22 48 -48c0 -9 -7 -16 -16 -16s-16 7 -16 16s-7 16 -16 16h-224c-9 0 -16 -7 -16 -16s-7 -16 -16 -16
s-16 7 -16 16c0 26 22 48 48 48h224zM176 96c-9 0 -16 7 -16 16s7 16 16 16h160c9 0 16 -7 16 -16s-7 -16 -16 -16h-160zM496 416c9 0 16 -7 16 -16s-7 -16 -16 -16h-16v-16c0 -9 -7 -16 -16 -16s-16 7 -16 16v16h-16c-9 0 -16 7 -16 16s7 16 16 16h16v16c0 9 7 16 16 16
s16 -7 16 -16v-16h16zM176 32c-9 0 -16 7 -16 16s7 16 16 16h160c9 0 16 -7 16 -16s-7 -16 -16 -16h-160z" />
    <glyph glyph-name="transporter-empty" unicode="&#xe046;" horiz-adv-x="320" 
d="M272 0c26 0 48 -22 48 -48c0 -9 -7 -16 -16 -16s-16 7 -16 16s-7 16 -16 16h-224c-9 0 -16 -7 -16 -16s-7 -16 -16 -16s-16 7 -16 16c0 26 22 48 48 48h224z" />
    <glyph glyph-name="ufo" unicode="&#xe047;" horiz-adv-x="640" 
d="M320 104c13 0 24 -11 24 -24s-11 -24 -24 -24s-24 11 -24 24s11 24 24 24zM128 152c13 0 24 -11 24 -24s-11 -24 -24 -24s-24 11 -24 24s11 24 24 24zM512 152c13 0 24 -11 24 -24s-11 -24 -24 -24s-24 11 -24 24s11 24 24 24zM491 236c89 -23 149 -62 149 -108
c0 -71 -143 -128 -320 -128s-320 57 -320 128c0 46 60 85 149 108c12 83 84 148 171 148s159 -65 171 -148zM320 352c-78 0 -141 -62 -141 -140c0 -6 1 -12 2 -18c43 -22 91 -34 139 -34s96 12 139 34c1 6 2 12 2 18c0 78 -63 140 -141 140zM320 32c176 0 288 57 288 96
c0 24 -43 54 -116 75c-1 -6 0 -5 -1 -13c-2 -10 -8 -20 -17 -24c-48 -25 -100 -38 -154 -38s-106 13 -154 38c-9 5 -15 14 -17 24c-1 8 0 7 -1 13c-73 -21 -116 -51 -116 -75c0 -39 112 -96 288 -96z" />
    <glyph glyph-name="ufo-beam" unicode="&#xe048;" horiz-adv-x="576" 
d="M288 232c13 0 24 -11 24 -24s-11 -24 -24 -24s-24 11 -24 24s11 24 24 24zM120 264c13 0 24 -11 24 -24s-11 -24 -24 -24s-24 11 -24 24s11 24 24 24zM456 264c13 0 24 -11 24 -24s-11 -24 -24 -24s-24 11 -24 24s11 24 24 24zM576 240c0 -62 -129 -112 -288 -112
s-288 50 -288 112c0 41 57 76 141 96c18 65 78 112 147 112s129 -47 147 -112c84 -19 141 -55 141 -96zM288 416c-63 0 -115 -48 -120 -111c36 -11 77 -17 120 -17s84 6 120 17c-5 63 -57 111 -120 111zM288 160c166 0 256 53 256 80c0 17 -37 44 -105 62
c-1 -13 -9 -24 -22 -28c-40 -12 -84 -18 -129 -18s-89 6 -129 18c-13 4 -21 15 -22 28c-68 -18 -105 -45 -105 -62c0 -27 90 -80 256 -80zM16 -64c-3 0 -5 1 -8 2c-7 4 -10 14 -6 22l80 144c4 8 14 10 22 6s10 -14 6 -22l-80 -144c-3 -5 -8 -8 -14 -8zM560 -64
c-6 0 -11 3 -14 8l-80 144c-4 8 -1 18 6 22c8 4 18 2 22 -6l80 -144c4 -8 2 -18 -6 -22c-3 -1 -5 -2 -8 -2z" />
    <glyph glyph-name="user-alien" unicode="&#xe04a;" horiz-adv-x="448" 
d="M207 70c-42 32 -143 118 -143 204c0 108 72 174 160 174s160 -66 160 -174c0 -86 -101 -172 -143 -204c-5 -4 -11 -6 -17 -6s-12 2 -17 6zM224 416c-77 0 -128 -57 -128 -142c0 -71 95 -151 128 -177c33 25 128 106 128 177c0 85 -51 142 -128 142zM192 224
c-2 0 -3 0 -5 1l-48 16c-8 3 -13 12 -10 20s12 13 20 10l48 -16c8 -3 13 -12 10 -20c-2 -7 -8 -11 -15 -11zM256 224c-7 0 -13 4 -15 11c-3 8 2 17 10 20l48 16c8 3 17 -2 20 -10s-2 -17 -10 -20l-48 -16c-2 -1 -3 -1 -5 -1zM320 96c71 0 128 -57 128 -128
c0 -18 -14 -32 -32 -32h-384c-18 0 -32 14 -32 32c0 71 57 128 128 128c9 0 16 -7 16 -16s-7 -16 -16 -16c-53 0 -96 -43 -96 -96h384c0 53 -43 96 -96 96c-9 0 -16 7 -16 16s7 16 16 16z" />
    <glyph glyph-name="user-robot" unicode="&#xe04b;" horiz-adv-x="448" 
d="M128 128c-35 0 -64 29 -64 64v128c0 35 29 64 64 64h80v48c0 9 7 16 16 16s16 -7 16 -16v-48h80c35 0 64 -29 64 -64v-128c0 -35 -29 -64 -64 -64h-192zM96 320v-112h16c9 0 16 -7 16 -16s-7 -16 -16 -16h-11c5 -9 15 -16 27 -16h192c12 0 22 7 27 16h-11
c-9 0 -16 7 -16 16s7 16 16 16h16v112c0 18 -14 32 -32 32h-192c-18 0 -32 -14 -32 -32zM16 192c-9 0 -16 7 -16 16v96c0 9 7 16 16 16s16 -7 16 -16v-96c0 -9 -7 -16 -16 -16zM432 320c9 0 16 -7 16 -16v-96c0 -9 -7 -16 -16 -16s-16 7 -16 16v96c0 9 7 16 16 16zM304 48
c26 0 48 -22 48 -48v-48c0 -9 -7 -16 -16 -16s-16 7 -16 16v48c0 9 -7 16 -16 16h-160c-9 0 -16 -7 -16 -16v-48c0 -9 -7 -16 -16 -16s-16 7 -16 16v48c0 26 22 48 48 48h160zM176 0c9 0 16 -7 16 -16v-32c0 -9 -7 -16 -16 -16s-16 7 -16 16v32c0 9 7 16 16 16zM272 0
c9 0 16 -7 16 -16s-7 -16 -16 -16s-16 7 -16 16s7 16 16 16zM160 240c-26 0 -48 22 -48 48s22 48 48 48s48 -22 48 -48s-22 -48 -48 -48zM160 304c-9 0 -16 -7 -16 -16s7 -16 16 -16s16 7 16 16s-7 16 -16 16zM288 240c-26 0 -48 22 -48 48s22 48 48 48s48 -22 48 -48
s-22 -48 -48 -48zM288 304c-9 0 -16 -7 -16 -16s7 -16 16 -16s16 7 16 16s-7 16 -16 16zM192 208c9 0 16 -7 16 -16s-7 -16 -16 -16h-32c-9 0 -16 7 -16 16s7 16 16 16h32zM248 176c-9 0 -16 7 -16 16s7 16 16 16h32c9 0 16 -7 16 -16s-7 -16 -16 -16h-32zM352 96
c53 0 96 -43 96 -96v-32c0 -18 -14 -32 -32 -32h-16c-9 0 -16 7 -16 16s7 16 16 16h16v32c0 35 -29 64 -64 64h-256c-35 0 -64 -29 -64 -64v-32h16c9 0 16 -7 16 -16s-7 -16 -16 -16h-16c-18 0 -32 14 -32 32v32c0 53 43 96 96 96h256z" />
    <glyph glyph-name="user-visor" unicode="&#xe04c;" horiz-adv-x="448" 
d="M275 144c95 0 173 -78 173 -173c0 -19 -16 -35 -35 -35h-378c-19 0 -35 16 -35 35c0 95 78 173 173 173h102zM413 -32c2 0 3 1 3 3c0 78 -63 141 -141 141h-102c-78 0 -141 -63 -141 -141c0 -2 1 -3 3 -3h378zM100 290c-11 5 -20 16 -20 30v32c0 18 14 32 32 32h2
c23 38 64 64 111 64s88 -26 110 -64h1c18 0 32 -14 32 -32v-32c0 -13 -8 -24 -19 -29c-13 -57 -64 -99 -124 -99c-61 0 -111 42 -125 98zM225 224c41 0 77 27 90 64h-180c13 -37 48 -64 90 -64zM225 416c-29 0 -54 -13 -71 -32h142c-18 19 -43 32 -71 32zM112 352v-32h224
v32h-224zM334 71l32 -64c4 -8 1 -17 -7 -21c-2 -1 -5 -2 -7 -2c-6 0 -11 3 -14 9l-18 35l-18 -35c-4 -8 -13 -11 -21 -7s-11 13 -7 21l32 64c5 11 23 11 28 0z" />
    <glyph glyph-name="vacuum" unicode="&#xe04d;" horiz-adv-x="640" 
d="M352 48c9 0 16 -7 16 -16s-7 -16 -16 -16s-16 7 -16 16s7 16 16 16zM640 336c0 -62 -50 -112 -112 -112h-10c17 -29 26 -62 26 -96v-128c0 -35 -29 -64 -64 -64h-128c-53 0 -96 43 -96 96c0 42 27 77 64 90v166c0 18 14 32 32 32c54 0 106 -23 143 -64h33
c44 0 80 36 80 80s-36 80 -80 80h-226c-38 0 -70 -27 -78 -64l-66 -320h50c9 0 16 -7 16 -16v-64c0 -9 -7 -16 -16 -16h-192c-9 0 -16 7 -16 16c0 44 36 80 80 80h45l68 327c10 52 56 89 109 89h226c62 0 112 -50 112 -112zM192 0h-112c-20 0 -38 -13 -45 -32h157v32z
M352 -32c35 0 64 29 64 64s-29 64 -64 64s-64 -29 -64 -64s29 -64 64 -64zM512 0v128c0 88 -72 160 -160 160v-160c38 0 72 -22 88 -57c15 -34 9 -75 -17 -103h57c18 0 32 14 32 32z" />
    <glyph glyph-name="vacuum-robot" unicode="&#xe04e;" 
d="M139 139l64 -64c7 -6 7 -16 0 -22c-3 -3 -7 -5 -11 -5s-8 2 -11 5l-64 64c-7 6 -6 15 0 22s16 7 22 0zM235 235l64 -64c7 -6 7 -16 0 -22c-3 -3 -7 -5 -11 -5s-8 2 -11 5l-64 64c-7 6 -6 15 0 22s16 7 22 0zM155 219l128 -128c7 -6 7 -16 0 -22c-3 -3 -7 -5 -11 -5
s-8 2 -11 5l-128 128c-7 6 -6 15 0 22s16 7 22 0zM256 432c133 0 240 -107 240 -240s-107 -240 -240 -240s-240 107 -240 240s107 240 240 240zM256 -16c115 0 208 93 208 208s-93 208 -208 208s-208 -93 -208 -208s93 -208 208 -208zM381 317c33 -34 52 -78 51 -125
c-1 -46 -19 -90 -53 -123c-3 -3 -7 -5 -11 -5s-8 2 -11 5c-7 6 -7 16 0 22c27 28 43 64 43 101c0 38 -14 74 -42 102s-63 42 -102 42c-37 0 -73 -16 -101 -43c-6 -7 -15 -6 -22 0s-7 16 0 22c33 34 77 52 123 53s91 -18 125 -51z" />
    <glyph glyph-name="window-frame" unicode="&#xe04f;" 
d="M496 -32c9 0 16 -7 16 -16s-7 -16 -16 -16h-480c-9 0 -16 7 -16 16s7 16 16 16h16v416c0 35 29 64 64 64h320c35 0 64 -29 64 -64v-416h16zM240 -32v192h-176v-192h176zM240 192v224h-144c-18 0 -32 -14 -32 -32v-192h176zM448 -32v192h-176v-192h176zM448 192v192
c0 18 -14 32 -32 32h-144v-224h176z" />
    <glyph glyph-name="window-frame-open" unicode="&#xe050;" 
d="M496 -32c9 0 16 -7 16 -16s-7 -16 -16 -16h-480c-9 0 -16 7 -16 16s7 16 16 16h16v160h32v-160h384v160h32v-160h16zM480 384v-224h-448v224c0 35 29 64 64 64h320c35 0 64 -29 64 -64zM240 192v224h-144c-18 0 -32 -14 -32 -32v-192h176zM448 192v192
c0 18 -14 32 -32 32h-144v-224h176z" />
    <glyph glyph-name="coffin-cross" unicode="&#xe051;" horiz-adv-x="384" 
d="M371 335c11 -11 16 -28 12 -43l-80 -321c-5 -21 -24 -35 -45 -35h-132c-21 0 -40 14 -45 35l-80 321c-4 15 1 32 12 43l99 99c9 9 20 14 33 14h94c13 0 24 -5 33 -13zM272 -21l80 320c1 5 -1 10 -4 14l-99 99c-3 2 -6 4 -10 4h-94c-4 0 -7 -2 -10 -4l-99 -99
c-3 -4 -5 -9 -4 -14l80 -320c2 -7 7 -11 14 -11h132c7 0 12 4 14 11zM272 272c9 0 16 -7 16 -16s-7 -16 -16 -16h-64v-128c0 -9 -7 -16 -16 -16s-16 7 -16 16v128h-64c-9 0 -16 7 -16 16s7 16 16 16h64v64c0 9 7 16 16 16s16 -7 16 -16v-64h64z" />
    <glyph glyph-name="folder-arrow-down" unicode="&#xe053;" 
d="M448 352c35 0 64 -29 64 -64v-256c0 -35 -29 -64 -64 -64h-384c-35 0 -64 29 -64 64v320c0 35 29 64 64 64h118c16 0 33 -7 45 -19l45 -45h176zM480 32v256c0 18 -14 32 -32 32h-189l-10 9l-45 46c-6 6 -14 9 -22 9h-118c-18 0 -32 -14 -32 -32v-320c0 -18 14 -32 32 -32
h384c18 0 32 14 32 32zM245 69l-80 80c-7 6 -7 16 0 22c3 3 7 5 11 5s8 -2 11 -5l53 -52v121c0 9 7 16 16 16s16 -7 16 -16v-121l53 52c6 7 15 6 22 0s7 -16 0 -22l-80 -80c-6 -7 -16 -7 -22 0z" />
    <glyph glyph-name="folder-arrow-up" unicode="&#xe054;" 
d="M448 352c35 0 64 -29 64 -64v-256c0 -35 -29 -64 -64 -64h-384c-35 0 -64 29 -64 64v320c0 35 29 64 64 64h118c16 0 33 -7 45 -19l45 -45h176zM480 32v256c0 18 -14 32 -32 32h-189l-10 9l-45 46c-6 6 -14 9 -22 9h-118c-18 0 -32 -14 -32 -32v-320c0 -18 14 -32 32 -32
h384c18 0 32 14 32 32zM267 251l80 -80c7 -6 7 -16 0 -22c-3 -3 -7 -5 -11 -5s-8 2 -11 5l-53 52v-121c0 -9 -7 -16 -16 -16s-16 7 -16 16v121l-53 -52c-6 -7 -15 -6 -22 0s-7 16 0 22l80 80c6 7 16 7 22 0z" />
    <glyph glyph-name="user-unlock" unicode="&#xe058;" horiz-adv-x="640" 
d="M576 160c35 0 64 -29 64 -64v-96c0 -35 -29 -64 -64 -64h-160c-35 0 -64 29 -64 64v96c0 35 29 64 64 64v80c0 44 36 80 80 80s80 -36 80 -80c0 -9 -7 -16 -16 -16s-16 7 -16 16c0 26 -22 48 -48 48s-48 -22 -48 -48v-80h128zM608 0v96c0 18 -14 32 -32 32h-160
c-18 0 -32 -14 -32 -32v-96c0 -18 14 -32 32 -32h160c18 0 32 14 32 32zM496 72c13 0 24 -11 24 -24s-11 -24 -24 -24s-24 11 -24 24s11 24 24 24zM173 112c-78 0 -141 -63 -141 -141c0 -2 1 -3 3 -3h269c9 0 16 -7 16 -16s-7 -16 -16 -16h-269c-19 0 -35 15 -35 34
c0 96 78 174 173 174h102c11 0 22 -1 33 -3c7 -2 13 -8 13 -15v0c1 -11 -8 -19 -19 -17c-9 2 -18 3 -27 3h-102zM224 192c-71 0 -128 57 -128 128s57 128 128 128s128 -57 128 -128s-57 -128 -128 -128zM224 416c-53 0 -96 -43 -96 -96s43 -96 96 -96s96 43 96 96
s-43 96 -96 96z" />
    <glyph glyph-name="bacteria" unicode="&#xe059;" horiz-adv-x="640" 
d="M208 320c9 0 16 -7 16 -16s-7 -16 -16 -16s-16 7 -16 16s7 16 16 16zM128 248c13 0 24 -11 24 -24s-11 -24 -24 -24s-24 11 -24 24s11 24 24 24zM616 217c0 -6 0 -12 -1 -19c-2 -10 -5 -20 -8 -30l11 -4c9 -3 14 -13 11 -22c-4 -9 -14 -14 -23 -11l-10 4
c-7 -16 -15 -30 -23 -44l8 -7c8 -6 10 -17 4 -25c-5 -8 -17 -9 -25 -3l-8 6c-11 -13 -23 -25 -35 -35l6 -9c6 -8 4 -19 -3 -25c-8 -6 -20 -4 -25 4l-7 8c-14 -9 -28 -17 -44 -23l4 -10c3 -9 -2 -20 -11 -23s-19 2 -23 11l-3 9c-11 -3 -22 -6 -33 -8c-6 -1 -11 -1 -17 -1
l-3 -11c-2 -9 -12 -15 -22 -12c-9 2 -15 12 -12 21l3 11c-16 8 -29 20 -37 36l-11 -4c-10 -3 -19 3 -22 12c-3 10 2 19 12 22l12 4c-1 17 3 34 11 48l-9 9c-8 6 -8 17 -2 25c7 7 18 7 25 1l10 -9c10 7 22 12 34 14c4 1 8 2 13 3l-4 9c-4 9 0 19 9 23s19 0 23 -9l4 -9
c0 1 20 12 35 34l-9 4c-9 5 -13 15 -8 24c4 9 14 13 23 9l9 -5c2 5 3 10 4 16c2 11 6 22 12 31l-9 9c-7 7 -7 19 0 25c10 10 22 4 26 0l8 -9c14 9 29 14 46 14h3l3 11c2 8 11 15 22 12c9 -2 15 -12 12 -21l-3 -11c16 -8 29 -21 37 -36l11 4c9 2 19 -2 22 -12s-2 -20 -12 -22
zM583 203c3 14 -1 28 -9 39c-3 4 -16 22 -42 22s-47 -18 -51 -43c-11 -65 -61 -115 -126 -126c-13 -2 -25 -10 -33 -21s-12 -25 -9 -39c4 -24 26 -43 51 -43c3 0 6 0 9 1c108 18 192 102 210 210zM416 88c13 0 24 -11 24 -24s-11 -24 -24 -24s-24 11 -24 24s11 24 24 24z
M272 222c-9 -4 -19 0 -23 9l-4 9c0 -1 -20 -12 -35 -34l9 -4c9 -5 13 -15 8 -24c-4 -9 -14 -13 -23 -8l-9 4c-2 -5 -3 -10 -4 -16c-2 -11 -6 -22 -12 -31l9 -9c7 -7 7 -18 0 -25c-10 -10 -22 -4 -26 0l-8 9c-14 -9 -29 -14 -46 -14h-3l-3 -11c-2 -8 -9 -13 -17 -13
c-15 0 -19 15 -17 22l3 11c-16 8 -29 21 -37 36l-11 -4c-9 -2 -19 2 -22 12s2 20 12 22l11 4c0 6 0 12 1 19c2 10 5 20 8 30l-11 4c-9 3 -14 13 -11 22s14 14 23 11l10 -3c7 15 14 30 23 43l-9 7c-7 6 -9 17 -3 25c5 8 17 9 24 3l9 -6c11 13 23 25 35 35l-6 9
c-6 8 -4 19 3 25c8 6 19 4 25 -4l7 -8c14 9 28 17 44 23l-4 10c-3 9 2 20 11 23s19 -2 23 -11l3 -9c11 3 22 6 33 8c6 1 11 1 17 1l3 11c2 9 12 15 21 12c10 -2 16 -12 13 -21l-3 -11c16 -8 28 -20 37 -36l11 4c10 3 19 -3 22 -12c3 -10 -2 -19 -12 -22l-12 -4
c1 -17 -3 -34 -11 -48l9 -9c8 -6 8 -17 2 -25c-7 -7 -18 -7 -25 -1l-10 9c-10 -7 -22 -12 -34 -14c-4 -1 -8 -2 -13 -3l4 -9c4 -9 0 -19 -9 -23zM159 163c11 65 61 115 126 126c13 2 25 10 33 21s12 25 9 39c-1 9 -17 50 -59 42c-109 -18 -193 -102 -211 -210
c-3 -14 1 -27 9 -39s20 -19 33 -21c3 -1 6 -1 9 -1c26 0 47 18 51 43z" />
    <glyph glyph-name="bacterium" unicode="&#xe05a;" horiz-adv-x="576" 
d="M543 348c3 -9 -2 -18 -11 -20l-22 -7c5 -28 -2 -54 -16 -76l16 -15c7 -6 7 -16 1 -22c-5 -7 -16 -8 -23 -2l-15 14c-15 -13 -34 -23 -55 -26l-21 -6l6 -14c4 -9 0 -18 -8 -22c-8 -3 -18 1 -22 8l-6 15c-25 -13 -46 -34 -61 -59l15 -6c8 -4 12 -14 8 -22s-14 -11 -22 -8
l-15 7c-2 -8 -5 -17 -6 -25c-3 -20 -12 -38 -24 -52l14 -14c6 -6 6 -17 0 -23c-9 -8 -20 -3 -24 1l-14 14c-18 -13 -40 -20 -63 -20c-4 0 -9 1 -14 1l-5 -21c-2 -7 -9 -12 -16 -12c-11 0 -19 10 -16 20l6 22c-25 11 -45 30 -56 54l-22 -6c-8 -3 -18 1 -20 10
c-3 9 2 18 11 21l22 6c-2 12 -2 23 0 35c2 16 6 31 10 45l-19 7c-8 3 -13 12 -10 20c2 5 9 14 21 10l19 -6c10 26 23 51 38 74l-16 11c-7 5 -9 15 -3 23c5 7 15 8 23 3l15 -11c17 22 37 42 59 59l-12 15c-5 7 -4 18 4 23c7 5 17 4 23 -3l11 -15c23 15 47 29 74 39l-7 18
c-3 8 2 17 10 20c9 3 18 -1 21 -9l6 -18c16 5 32 9 49 11c7 2 12 2 17 2c7 0 12 -1 16 -1l5 21c2 7 9 12 16 12c10 0 18 -10 16 -20l-6 -22c1 0 37 -14 55 -54l23 7c9 2 18 -4 20 -11zM413 225c22 4 92 40 58 114c-22 48 -74 46 -85 44c-222 -37 -316 -268 -283 -337
c8 -17 22 -31 40 -39c50 -22 103 11 111 60c14 80 78 145 159 158zM191 176c27 0 48 -22 48 -48s-22 -48 -48 -48s-48 22 -48 48s22 48 48 48zM191 112c9 0 16 7 16 16s-7 16 -16 16s-16 -7 -16 -16s7 -16 16 -16zM271 264c14 0 24 -11 24 -24s-10 -24 -24 -24
c-13 0 -24 11 -24 24s11 24 24 24z" />
    <glyph glyph-name="box-tissue" unicode="&#xe05b;" 
d="M144 128c-11 0 -21 8 -23 19l-56 272c-2 7 0 14 4 20c5 6 12 9 19 9h117c41 0 77 -26 90 -64c6 -19 24 -32 44 -32h85c8 0 15 -4 19 -10c5 -6 6 -14 4 -22l-56 -175c-4 -10 -13 -17 -23 -17h-224zM205 416h-107l53 -256h211l51 160h-74c-34 0 -64 21 -75 53
c-8 26 -32 43 -59 43zM464 224c26 0 48 -22 48 -48v-192c0 -26 -22 -48 -48 -48h-416c-26 0 -48 22 -48 48v192c0 26 22 48 48 48h16c9 0 16 -7 16 -16s-7 -16 -16 -16h-16c-9 0 -16 -7 -16 -16v-112h448v112c0 9 -7 16 -16 16h-16c-9 0 -16 7 -16 16s7 16 16 16h16z
M480 -16v48h-448v-48c0 -9 7 -16 16 -16h416c9 0 16 7 16 16z" />
    <glyph glyph-name="hand-holding-medical" unicode="&#xe05c;" horiz-adv-x="576" 
d="M558 114c12 -10 18 -25 18 -41c-1 -16 -8 -30 -20 -40l-101 -81c-13 -10 -30 -16 -47 -16h-392c-9 0 -16 7 -16 16s7 16 16 16h393c9 0 19 3 26 9l101 81c10 8 11 23 1 32c-4 4 -9 6 -14 6s-10 -2 -14 -6l-62 -49c-8 -6 -17 -9 -27 -9h-180c-9 0 -16 7 -16 16s7 16 16 16
h88c13 0 24 11 24 24s-11 24 -24 24h-147c-14 0 -27 -4 -38 -13l-47 -35h-80c-9 0 -16 7 -16 16s7 16 16 16h69l39 29c16 12 37 19 57 19h145c28 0 53 -20 57 -48c2 -11 0 -22 -4 -32h41c3 0 5 1 7 2l61 50c10 8 23 12 35 12c13 0 26 -5 35 -14zM192 256
c-18 0 -32 14 -32 32v64c0 18 14 32 32 32h32v32c0 18 14 32 32 32h64c18 0 32 -14 32 -32v-32h32c18 0 32 -14 32 -32v-64c0 -18 -14 -32 -32 -32h-32v-32c0 -18 -14 -32 -32 -32h-64c-18 0 -32 14 -32 32v32h-32zM192 352v-64h64v-64h64v64h64v64h-64v64h-64v-64h-64z" />
    <glyph glyph-name="hand-sparkles" unicode="&#xe05d;" horiz-adv-x="640" 
d="M320 32c-9 0 -16 7 -16 16v32h-32c-9 0 -16 7 -16 16s7 16 16 16h32v32c0 9 7 16 16 16s16 -7 16 -16v-32h32c9 0 16 -7 16 -16s-7 -16 -16 -16h-32v-32c0 -9 -7 -16 -16 -16zM80 224c-9 0 -16 7 -16 16v48h-48c-9 0 -16 7 -16 16s7 16 16 16h48v48c0 9 7 16 16 16
s16 -7 16 -16v-48h32c9 0 16 -7 16 -16s-7 -16 -16 -16h-32v-48c0 -9 -7 -16 -16 -16zM624 32c9 0 16 -7 16 -16s-7 -16 -16 -16h-48v-48c0 -9 -7 -16 -16 -16s-16 7 -16 16v48h-48c-9 0 -16 7 -16 16s7 16 16 16h48v48c0 9 7 16 16 16s16 -7 16 -16v-48h48zM512 313
c0 13 -11 24 -24 24s-24 -11 -24 -24v-105c0 -8 -7 -16 -16 -16s-16 8 -16 16v152c0 13 -11 24 -24 24s-24 -11 -24 -24v-152c0 -9 -7 -16 -16 -16s-16 7 -16 16v184c0 13 -11 24 -24 24s-24 -11 -24 -24v-184c0 -8 -6 -15 -14 -16s-16 5 -18 13c-1 5 -6 33 -18 151
c-1 12 -13 21 -25 20c-7 -1 -12 -4 -16 -9c-4 -4 -5 -10 -5 -16c12 -112 15 -202 16 -219c0 -5 -1 -10 -4 -15c-4 -8 -13 -14 -23 -15c-10 0 -20 4 -26 12l-35 46c-3 5 -9 8 -16 9c-6 0 -12 -2 -17 -6c-9 -8 -9 -22 -2 -32l87 -114c22 -31 57 -49 94 -49h102
c20 0 39 4 57 13c8 4 17 1 21 -7s1 -17 -7 -21c-22 -11 -46 -17 -71 -17h-102c-47 0 -92 23 -120 62l-86 113c-18 23 -15 56 5 75c12 11 27 16 42 14c15 -1 29 -9 39 -21l30 -39c-1 26 -5 108 -16 208c-1 14 3 28 12 40c9 11 23 18 37 20c18 2 36 -6 47 -18v2
c0 31 25 56 56 56c25 0 46 -16 53 -39c8 5 17 7 27 7c30 0 54 -24 56 -53c7 3 15 6 24 6c31 0 56 -25 56 -56v-185c0 -9 -7 -16 -16 -16s-16 7 -16 16v185z" />
    <glyph glyph-name="hands-bubbles" unicode="&#xe05e;" horiz-adv-x="576" 
d="M112 64c35 0 64 -29 64 -64s-29 -64 -64 -64s-64 29 -64 64s29 64 64 64zM112 -32c18 0 32 14 32 32s-14 32 -32 32s-32 -14 -32 -32s14 -32 32 -32zM464 336c-31 0 -56 25 -56 56s25 56 56 56s56 -25 56 -56s-25 -56 -56 -56zM464 416c-13 0 -24 -11 -24 -24
s11 -24 24 -24s24 11 24 24s-11 24 -24 24zM496 280c0 13 11 24 24 24s24 -11 24 -24s-11 -24 -24 -24s-24 11 -24 24zM509 158c17 -5 31 -19 34 -38c3 -14 -1 -28 -10 -39c-7 -8 -15 -13 -24 -15c1 -3 2 -7 2 -10c3 -14 -1 -28 -10 -39c-7 -8 -15 -13 -24 -15
c1 -3 2 -7 2 -10c3 -19 -5 -38 -21 -48c-8 -6 -18 -8 -28 -8h-206c-5 0 -9 0 -13 1c-11 1 -18 13 -13 22c5 11 16 10 16 10c4 -1 7 -1 10 -1h208c10 0 17 9 16 19c-2 8 -9 13 -17 13h-79c-10 0 -17 9 -16 19c2 8 9 13 17 13h111c10 0 17 9 16 19c-2 8 -9 13 -17 13h-111
c-10 0 -17 9 -16 19c2 8 9 13 17 13h143c10 0 17 9 16 19c-2 8 -9 13 -17 13h-143c-10 0 -17 9 -16 19c2 8 9 13 17 13h111c10 0 17 9 16 19c-2 8 -9 13 -17 13h-180c-9 0 -11 12 -2 16l37 13c8 3 12 12 9 20c-2 7 -8 11 -15 11c-2 0 -3 -1 -5 -1l-113 -37
c-39 -13 -66 -50 -66 -92v-12c0 -8 -7 -16 -16 -16v0c-9 0 -16 8 -16 16v12c0 56 35 105 88 122l113 37c4 2 10 3 15 3c20 0 38 -13 45 -32c4 -9 4 -19 2 -28h104c24 0 45 -17 48 -40c2 -9 1 -18 -2 -26zM64 144c0 -9 -7 -16 -16 -16v0c-9 0 -16 7 -16 16v128
c0 26 22 48 48 48c12 0 22 -4 31 -11l35 98c7 20 26 33 46 33c3 0 6 0 9 -1c8 -2 16 -6 23 -11c9 12 23 20 39 20v0c3 0 6 0 9 -1c14 -2 26 -11 33 -23c4 -9 7 -18 6 -28h1c3 0 6 0 9 -1c14 -2 26 -11 33 -23c5 -9 7 -18 6 -28h1c3 0 6 0 9 -1c19 -3 34 -17 38 -36
c2 -10 1 -20 -2 -29l-1 -2c-4 -10 -16 -14 -24 -8c-8 4 -10 14 -6 21l1 2c4 9 -2 19 -12 21h-3c-1 0 -3 0 -4 -1c-9 -3 -16 -1 -18 0c-11 4 -17 16 -13 28l1 4c3 9 -2 19 -12 21h-3c-7 0 -13 -5 -15 -11l-13 -36c-2 -5 -6 -8 -10 -10c-13 -4 -25 8 -20 21l24 67
c3 9 -2 19 -12 21h-3c-7 0 -13 -5 -15 -11l-41 -112s-3 -9 -13 -10c-12 -1 -21 11 -17 22l30 81c3 9 -2 20 -12 22h-3c-7 0 -13 -5 -15 -12l-54 -147c-1 -3 -3 -5 -6 -7c-9 -6 -21 1 -21 12v17c0 8 -5 15 -13 17c-10 1 -19 -6 -19 -16v-128z" />
    <glyph glyph-name="handshake-simple-slash" unicode="&#xe05f;" horiz-adv-x="640" 
d="M258 350c-9 -1 -18 -4 -27 -6l-29 23c17 7 34 12 52 15c8 1 17 -5 18 -14s-5 -17 -14 -18zM350 298c7 6 17 6 23 -1c6 -6 5 -16 -1 -22c0 0 -11 -10 -25 -23l-25 20c8 8 17 16 28 26zM286 300l-25 20l55 52c9 8 20 12 31 12h9c55 0 111 -23 153 -64h115c9 0 16 -7 16 -16
s-7 -16 -16 -16h-128l-5 5c-37 37 -86 59 -135 59h-9c-3 0 -7 -1 -9 -4zM381 23l19 24l25 -20l-19 -24c-18 -22 -51 -25 -73 -7l-6 5c-11 -9 -25 -15 -40 -17h-8c-17 0 -34 6 -48 17l-82 63h-117c-9 0 -16 7 -16 16s7 16 16 16h128l91 -70c9 -7 21 -11 33 -10s22 7 30 17
l11 10l12 -8l17 -15c8 -6 20 -5 27 3zM95 288h-79c-9 0 -16 7 -16 16s7 16 16 16h39zM624 96c9 0 16 -7 16 -16s-7 -16 -16 -16h-39l-40 32h79zM26 445l608 -480c7 -6 8 -16 3 -23c-4 -4 -8 -6 -13 -6c-3 0 -7 1 -10 3l-608 480c-7 6 -8 16 -3 23c6 7 16 8 23 3z" />
    <glyph glyph-name="handshake-slash" unicode="&#xe060;" horiz-adv-x="640" 
d="M258 350c-9 -1 -18 -4 -27 -6l-29 23c17 7 34 12 52 15c8 1 17 -5 18 -14s-5 -17 -14 -18zM350 298c7 6 17 6 23 -1c6 -6 5 -16 -1 -22c0 0 -11 -10 -25 -23l-25 20c8 8 17 16 28 26zM286 300l-25 20l55 52c9 8 20 12 31 12h9c55 0 111 -23 153 -64h115c9 0 16 -7 16 -16
s-7 -16 -16 -16h-64v-204l-32 25v179h-32l-5 5c-37 37 -86 59 -135 59h-9c-3 0 -7 -1 -9 -4zM381 23l19 24l25 -20l-19 -24c-18 -22 -51 -25 -73 -7l-6 5c-11 -9 -25 -15 -40 -17h-8c-17 0 -34 6 -48 17l-82 63h-40c-7 -19 -24 -32 -45 -32h-32c-9 0 -16 7 -16 16
s7 16 16 16h32c9 0 16 7 16 16v208h-64c-9 0 -16 7 -16 16s7 16 16 16h39l57 -45v-179h48l91 -70c9 -7 21 -11 33 -10s22 7 30 17l11 10l12 -8l17 -15c8 -6 20 -5 27 3zM624 64c9 0 16 -7 16 -16c0 -8 -6 -15 -14 -16l-41 32h39zM26 445l608 -480c7 -6 8 -16 3 -23
c-4 -4 -8 -6 -13 -6c-3 0 -7 1 -10 3l-608 480c-7 6 -8 16 -3 23c6 7 16 8 23 3z" />
    <glyph glyph-name="head-side-cough" unicode="&#xe061;" horiz-adv-x="640" 
d="M477 173c10 -21 -6 -45 -29 -45h-32v-32c0 -9 -7 -16 -16 -16h-64c-10 0 -17 -9 -16 -19c2 -8 9 -13 17 -13h63c9 0 16 -7 16 -16v-32c0 -35 -29 -64 -64 -64h-48c-9 0 -16 7 -16 16v0c0 9 7 16 16 16h48c18 0 32 14 32 32v16h-48c-27 0 -49 23 -48 51c1 26 25 45 51 45
h45v32c0 9 7 16 16 16h48c-9 19 -18 47 -28 75c-13 40 -30 89 -42 106c-33 47 -87 75 -144 75h-34c-112 0 -202 -109 -155 -221c10 -24 26 -45 46 -63l5 -5v-175c0 -9 -7 -16 -16 -16v0c-9 0 -16 7 -16 16v161c-41 37 -66 91 -64 150c4 104 93 185 198 185h36
c69 0 132 -34 170 -88c25 -35 52 -140 73 -187zM352 248c0 -13 -11 -24 -24 -24s-24 11 -24 24s11 24 24 24s24 -11 24 -24zM608 88c13 0 24 -11 24 -24s-11 -24 -24 -24s-24 11 -24 24s11 24 24 24zM480 88c13 0 24 -11 24 -24s-11 -24 -24 -24s-24 11 -24 24s11 24 24 24z
M608 136c-13 0 -24 11 -24 24s11 24 24 24s24 -11 24 -24s-11 -24 -24 -24zM544 136c13 0 24 -11 24 -24s-11 -24 -24 -24s-24 11 -24 24s11 24 24 24zM544 40c13 0 24 -11 24 -24s-11 -24 -24 -24s-24 11 -24 24s11 24 24 24zM608 -8c13 0 24 -11 24 -24s-11 -24 -24 -24
s-24 11 -24 24s11 24 24 24z" />
    <glyph glyph-name="head-side-cough-slash" unicode="&#xe062;" horiz-adv-x="640" 
d="M568 112c0 -10 -6 -19 -15 -22l-32 25c1 12 11 21 23 21c13 0 24 -11 24 -24zM200 416c-18 0 -34 -3 -50 -8l-31 24c25 10 51 16 79 16h36c69 0 132 -34 170 -88c25 -35 52 -140 73 -187c4 -8 4 -17 1 -24l-38 29c-6 17 -13 37 -20 57c-13 40 -30 89 -42 106
c-33 47 -87 75 -144 75h-34zM608 136c-13 0 -24 11 -24 24s11 24 24 24s24 -11 24 -24s-11 -24 -24 -24zM608 88c13 0 24 -11 24 -24c0 -11 -8 -20 -18 -23l-30 24c1 13 11 23 24 23zM634 -35c7 -6 8 -16 3 -23c-4 -4 -8 -6 -13 -6c-3 0 -7 1 -10 3l-608 480
c-7 6 -8 16 -3 23c6 7 16 8 23 3zM45 195c10 -24 26 -45 46 -63l5 -5v-175c0 -9 -7 -16 -16 -16s-16 7 -16 16v161c-41 37 -66 91 -64 150c1 30 9 58 23 82l26 -20c-19 -38 -24 -84 -4 -130zM399 48l16 -13c1 -1 1 -2 1 -3v-32c0 -35 -29 -64 -64 -64h-48c-9 0 -16 7 -16 16
s7 16 16 16h48c18 0 32 14 32 32v16h-48c-27 0 -49 23 -48 51c1 20 15 36 34 42l37 -29h-23c-10 0 -17 -9 -16 -19c2 -8 9 -13 17 -13h62z" />
    <glyph glyph-name="head-side-mask" unicode="&#xe063;" 
d="M512 160v-27c0 -3 -1 -7 -2 -10l-47 -143c-9 -26 -34 -44 -61 -44h-162c-9 0 -16 7 -16 16v179l-191 139v0c-5 -50 15 -99 52 -133l11 -10v-175c0 -9 -7 -16 -16 -16s-16 7 -16 16v161c-41 37 -66 91 -64 150c4 104 94 185 198 185h68c69 0 132 -34 170 -88
c25 -35 52 -140 73 -187c2 -4 3 -9 3 -13zM468 96l10 32h-222v-160h146c14 0 26 9 30 22l4 10h-100c-9 0 -16 7 -16 16s7 16 16 16h110l11 32h-121c-9 0 -16 7 -16 16s7 16 16 16h132zM480 160c-9 19 -18 47 -28 76c-13 39 -30 88 -42 105c-33 47 -87 75 -144 75h-66
c-74 0 -137 -47 -159 -112l198 -144h241zM344 272c13 0 24 -11 24 -24s-11 -24 -24 -24s-24 11 -24 24s11 24 24 24z" />
    <glyph glyph-name="head-side-virus" unicode="&#xe064;" 
d="M224 256c9 0 16 -7 16 -16s-7 -16 -16 -16s-16 7 -16 16s7 16 16 16zM256 224c9 0 16 -7 16 -16s-7 -16 -16 -16s-16 7 -16 16s7 16 16 16zM311 131c-7 6 -15 9 -23 9c-16 0 -32 -13 -32 -32v-12c0 -9 -7 -16 -16 -16s-16 7 -16 16v12c0 19 -16 32 -32 32
c-8 0 -16 -3 -23 -9l-8 -9c-3 -3 -6 -4 -11 -4s-9 1 -12 4c-6 6 -6 17 0 23l9 8c20 21 6 55 -23 55h-12c-9 0 -16 7 -16 16s7 16 16 16h12c29 0 43 34 23 55l-9 8c-6 6 -6 17 0 23c3 3 6 5 11 5s9 -2 12 -5l8 -9c7 -6 15 -9 23 -9c16 0 32 13 32 32v12c0 9 7 16 16 16
s16 -7 16 -16v-12c0 -19 16 -32 32 -32c8 0 16 3 23 9l8 9c3 3 8 4 12 4s8 -1 11 -4c6 -6 6 -17 0 -23l-9 -8c-20 -21 -6 -55 23 -55h12c9 0 16 -7 16 -16s-7 -16 -16 -16h-12c-29 0 -43 -34 -23 -55l9 -8c6 -6 6 -17 0 -23c-3 -3 -6 -4 -11 -4s-9 1 -12 4zM244 155
c12 11 28 17 44 17h4c-1 10 1 19 5 28c4 10 9 18 17 24c-8 6 -13 14 -17 23c-4 10 -6 19 -5 29h-4c-19 0 -36 8 -48 22c-12 -14 -29 -22 -48 -22h-4c1 -10 -1 -19 -5 -28c-4 -10 -9 -18 -16 -24c7 -6 12 -14 16 -23c4 -10 6 -19 5 -29h4c19 0 36 -8 48 -22c1 2 3 3 4 5z
M509 173c10 -21 -6 -45 -29 -45h-32v-64c0 -35 -29 -64 -64 -64h-64v-48c0 -9 -7 -16 -16 -16s-16 7 -16 16v64c0 9 7 16 16 16h80c18 0 32 14 32 32v80c0 9 7 16 16 16h48c-9 19 -18 46 -28 75c-13 40 -29 88 -42 106c-33 47 -87 75 -144 75h-66c-89 0 -165 -69 -168 -154
c-2 -47 18 -93 53 -125l11 -10v-175c0 -9 -7 -16 -16 -16s-16 7 -16 16v161c-41 37 -66 91 -64 150c4 105 96 185 200 185h66c69 0 132 -34 170 -88c25 -35 52 -140 73 -187z" />
    <glyph glyph-name="house-user" unicode="&#xe065;" horiz-adv-x="576" 
d="M256 96h64c44 0 80 -36 80 -80c0 -9 -7 -16 -16 -16s-16 7 -16 16c0 26 -21 48 -48 48h-64c-26 0 -48 -21 -48 -48c0 -9 -7 -16 -16 -16s-16 7 -16 16c0 44 36 80 80 80zM224 192c0 35 29 64 64 64s64 -29 64 -64s-29 -64 -64 -64s-64 29 -64 64zM320 192
c0 18 -14 32 -32 32s-32 -14 -32 -32s14 -32 32 -32s32 14 32 32zM571 204c6 -6 7 -16 1 -23c-3 -3 -8 -5 -12 -5s-8 1 -11 4l-37 33v-197c0 -44 -36 -80 -80 -80h-288c-44 0 -80 36 -80 80v197l-37 -33c-7 -6 -17 -5 -23 1c-6 7 -5 17 1 23l272 240c6 5 16 5 22 0l85 -75
v31c0 9 7 16 16 16h96c9 0 16 -7 16 -16v-144v0zM416 384v-44l64 -56v100h-64zM480 240v1l-192 170l-192 -170v-1v-224c0 -26 22 -48 48 -48h288c26 0 48 22 48 48v224z" />
    <glyph glyph-name="house-laptop" unicode="&#xe066;" horiz-adv-x="640" 
d="M272 144c0 26 22 48 48 48h224c26 0 48 -22 48 -48v-128c0 -9 -7 -16 -16 -16s-16 7 -16 16v128c0 9 -7 16 -16 16h-224c-9 0 -16 -7 -16 -16v-128c0 -9 -7 -16 -16 -16s-16 7 -16 16v128zM608 -32c9 0 16 -7 16 -16s-7 -16 -16 -16h-352c-9 0 -16 7 -16 16s7 16 16 16
h352zM192 64c9 0 16 -7 16 -16v0c0 -9 -7 -16 -16 -16h-96c-27 0 -48 22 -48 48v168l-21 -20c-7 -6 -17 -5 -23 1c-6 7 -5 17 1 23l208 192c6 5 16 5 22 0l133 -123v63c0 9 7 16 16 16s16 -7 16 -16v-93l43 -39c6 -6 7 -16 1 -23c-3 -3 -8 -5 -12 -5s-8 1 -11 4l-197 182
l-144 -133v-197c0 -9 7 -16 16 -16h96zM224 176c9 0 16 -7 16 -16s-7 -16 -16 -16h-48c-9 0 -16 7 -16 16v96c0 9 7 16 16 16h96c9 0 16 -7 16 -16v-16c0 -9 -7 -16 -16 -16s-16 7 -16 16h-64v-64h32z" />
    <glyph glyph-name="lungs-virus" unicode="&#xe067;" horiz-adv-x="640" 
d="M320 304c-9 0 -16 7 -16 16v112c0 9 7 16 16 16s16 -7 16 -16v-112c0 -9 -7 -16 -16 -16zM204 176v0v0zM201 -2c6 3 13 2 18 -3c8 -8 6 -21 -4 -26c-74 -34 -119 -33 -120 -33c-51 1 -94 40 -95 90c0 11 1 22 4 32c22 81 56 159 102 231c22 34 36 63 80 63
c38 0 69 -29 70 -65c0 -8 -7 -15 -16 -15s-16 7 -16 16v-2c0 19 -17 34 -38 34s-25 -4 -53 -48c-44 -70 -77 -144 -98 -222c-2 -7 -3 -15 -3 -22c0 -33 30 -60 66 -60c11 0 60 10 103 30zM256 288v-1v-1v2zM304 160c9 0 16 -7 16 -16s-7 -16 -16 -16s-16 7 -16 16
s7 16 16 16zM436 176v0v0zM336 128c9 0 16 -7 16 -16s-7 -16 -16 -16s-16 7 -16 16s7 16 16 16zM422 49c6 -6 6 -17 0 -23c-3 -3 -6 -4 -11 -4s-9 1 -12 4l-8 9c-7 6 -15 9 -23 9c-16 0 -32 -13 -32 -32v-12c0 -9 -7 -16 -16 -16s-16 7 -16 16v12c0 19 -16 32 -32 32
c-8 0 -16 -3 -23 -9l-8 -9c-3 -3 -6 -4 -11 -4s-9 1 -12 4c-6 6 -6 17 0 23l9 8c20 21 6 55 -23 55h-12c-9 0 -16 7 -16 16s7 16 16 16h12c29 0 43 34 23 55l-9 8c-6 6 -6 17 0 23c3 3 6 5 11 5s9 -2 12 -5l8 -9c7 -6 15 -9 23 -9c16 0 32 13 32 32v12c0 9 7 16 16 16
s16 -7 16 -16v-12c0 -19 16 -32 32 -32c8 0 16 3 23 9l8 9c3 3 8 4 12 4s8 -1 11 -4c6 -6 6 -17 0 -23l-9 -8c-20 -21 -6 -55 23 -55h12c9 0 16 -7 16 -16s-7 -16 -16 -16h-12c-29 0 -43 -34 -23 -55zM377 105c4 9 9 17 17 23c-8 6 -13 14 -17 24c-4 9 -6 18 -5 28h-4
c-19 0 -36 8 -48 22c-12 -14 -29 -22 -48 -22h-4c1 -10 -1 -19 -5 -28c-4 -10 -9 -18 -17 -24c8 -6 13 -14 17 -23c4 -10 6 -19 5 -29h4c19 0 36 -8 48 -22c12 14 29 22 48 22h4c-1 10 1 19 5 29zM636 58c3 -10 4 -21 4 -32c-1 -50 -44 -89 -95 -90c-1 0 -46 -1 -119 33
c-11 5 -13 18 -5 26c5 5 12 6 18 3c43 -20 92 -30 103 -30c36 0 66 27 66 60c0 7 -1 15 -3 22c-21 78 -54 152 -98 222c-28 44 -32 48 -53 48s-38 -15 -38 -34v2c0 -9 -7 -16 -16 -16s-16 7 -16 15c1 36 32 65 70 65c44 0 58 -29 80 -63c46 -72 80 -150 102 -231z" />
    <glyph glyph-name="people-arrows-left-right" unicode="&#xe068;" horiz-adv-x="576" 
d="M447 138c-1 -2 -2 -4 -4 -5l-64 -64c-3 -3 -7 -5 -11 -5s-8 2 -11 5c-7 6 -7 16 0 22l36 37h-210l36 -37c7 -6 7 -16 0 -22c-3 -3 -7 -5 -11 -5s-8 2 -11 5l-64 64c-2 1 -3 3 -4 5c-1 4 -1 8 0 12c1 2 2 4 4 5l64 64c6 7 15 6 22 0s7 -16 0 -22l-36 -37h210l-36 37
c-7 6 -6 15 0 22s16 7 22 0l64 -64c2 -1 3 -3 4 -5c1 -4 1 -8 0 -12zM96 320c-35 0 -64 29 -64 64s29 64 64 64s64 -29 64 -64s-29 -64 -64 -64zM96 416c-18 0 -32 -14 -32 -32s14 -32 32 -32s32 14 32 32s-14 32 -32 32zM144 64c9 0 16 -7 16 -16v-96c0 -9 -7 -16 -16 -16
s-16 7 -16 16v96c0 9 7 16 16 16zM138 232c-9 14 -22 24 -39 24h-19c-26 0 -48 -22 -48 -48v-80h16c9 0 16 -7 16 -16v-160c0 -9 -7 -16 -16 -16s-16 7 -16 16v144v0c-18 0 -32 14 -32 32v80c0 44 36 80 80 80h16c28 0 55 -15 69 -40c5 -8 2 -17 -6 -22c-7 -4 -17 -2 -21 6z
M480 320c-35 0 -64 29 -64 64s29 64 64 64s64 -29 64 -64s-29 -64 -64 -64zM480 416c-18 0 -32 -14 -32 -32s14 -32 32 -32s32 14 32 32s-14 32 -32 32zM432 64c9 0 16 -7 16 -16v-96c0 -9 -7 -16 -16 -16s-16 7 -16 16v96c0 9 7 16 16 16zM496 288c44 0 80 -36 80 -80v-80
c0 -18 -14 -32 -32 -32v0v-144c0 -9 -7 -16 -16 -16s-16 7 -16 16v160c0 9 7 16 16 16h16v80c0 26 -22 48 -48 48h-19c-17 0 -30 -10 -39 -24c-4 -8 -14 -10 -21 -6c-8 5 -11 14 -6 22c14 25 41 40 69 40h16z" />
    <glyph glyph-name="plane-slash" unicode="&#xe069;" horiz-adv-x="640" 
d="M279 -32l73 117l25 -20l-71 -113c-5 -10 -16 -16 -27 -16h-66c-10 0 -19 5 -25 13s-8 18 -6 28l43 135h-57l-38 -51c-6 -8 -16 -13 -26 -13h-40c-10 0 -19 4 -25 12s-8 18 -6 28l30 104l-30 104c-2 10 0 20 6 28c1 2 3 3 5 4l16 -13l37 -123l-33 -113l40 1l48 64h117
l-56 -176h66zM193 374l-10 33c-3 10 -1 20 5 28s15 13 25 13h66c11 0 22 -7 27 -16l101 -160h89c38 0 112 -31 112 -80c0 -40 -49 -68 -88 -77l-36 29h12c32 0 80 26 80 48s-48 48 -80 48h-107l-110 176h-66l25 -77zM634 -35c7 -6 8 -16 3 -23c-4 -4 -8 -6 -13 -6
c-3 0 -7 1 -10 3l-608 480c-7 6 -8 16 -3 23c6 7 16 8 23 3z" />
    <glyph glyph-name="pump-medical" unicode="&#xe06a;" horiz-adv-x="384" 
d="M379 347c7 -6 7 -16 0 -22c-3 -3 -7 -5 -11 -5s-8 2 -11 5l-44 43h-73v-48c31 -3 56 -27 59 -58l21 -256c3 -38 -26 -70 -64 -70h-192c-38 0 -67 32 -64 70l21 256c2 31 28 55 59 58v96c0 18 14 32 32 32h96c18 0 32 -14 32 -32v-16h80c4 0 8 -2 11 -5zM112 416v-96h96
v96h-96zM267 259c-1 15 -13 28 -29 29h-156c-16 -1 -28 -14 -30 -29l-20 -256c-1 -9 2 -18 8 -25c6 -6 15 -10 24 -10h192c9 0 17 4 24 10c6 7 9 16 8 25zM227 155c7 0 13 -6 13 -14v-26c0 -8 -6 -14 -13 -14h-40v-40c0 -7 -6 -13 -14 -13h-26c-8 0 -14 6 -14 13v40h-40
c-7 0 -13 6 -13 14v26c0 8 6 14 13 14h40v40c0 7 6 13 14 13h26c8 0 14 -6 14 -13v-40h40z" />
    <glyph glyph-name="pump-soap" unicode="&#xe06b;" horiz-adv-x="384" 
d="M139 214c10 13 32 13 42 0c36 -49 55 -85 55 -107c0 -41 -34 -75 -76 -75s-76 34 -76 75c0 22 19 58 55 107zM160 64c24 0 44 19 44 43c0 10 -12 37 -44 81c-32 -44 -44 -71 -44 -81c0 -24 20 -43 44 -43zM379 347c7 -6 7 -16 0 -22c-3 -3 -7 -5 -11 -5s-8 2 -11 5
l-44 43h-73v-48c31 -3 56 -27 59 -58l21 -256c3 -38 -26 -70 -64 -70h-192c-38 0 -67 32 -64 70l21 256c2 31 28 55 59 58v96c0 18 14 32 32 32h96c18 0 32 -14 32 -32v-16h80c4 0 8 -2 11 -5zM112 416v-96h96v96h-96zM267 259c-1 15 -13 28 -29 29h-156
c-16 -1 -28 -14 -30 -29l-20 -256c-1 -9 2 -18 8 -25c6 -6 15 -10 24 -10h192c9 0 17 4 24 10c6 7 9 16 8 25z" />
    <glyph glyph-name="shield-virus" unicode="&#xe06c;" 
d="M272 208c9 0 16 -7 16 -16s-7 -16 -16 -16s-16 7 -16 16s7 16 16 16zM384 224c9 0 16 -7 16 -16s-7 -16 -16 -16h-12c-29 0 -43 -34 -23 -55l9 -8c6 -6 6 -17 0 -23c-3 -3 -6 -4 -11 -4s-9 1 -12 4l-8 9c-7 6 -15 9 -23 9c-16 0 -32 -13 -32 -32v-12c0 -9 -7 -16 -16 -16
s-16 7 -16 16v12c0 19 -16 32 -32 32c-8 0 -16 -3 -23 -9l-8 -9c-3 -3 -6 -4 -11 -4s-9 1 -12 4c-6 6 -6 17 0 23l9 8c20 21 6 55 -23 55h-12c-9 0 -16 7 -16 16s7 16 16 16h12c29 0 43 34 23 55l-9 8c-6 6 -6 17 0 23c3 3 6 5 11 5s9 -2 12 -5l8 -9c7 -6 15 -9 23 -9
c16 0 32 13 32 32v12c0 9 7 16 16 16s16 -7 16 -16v-12c0 -19 16 -32 32 -32c8 0 16 3 23 9l8 9c3 3 6 4 11 4s9 -1 12 -4c6 -6 6 -17 0 -23l-9 -8c-20 -21 -6 -55 23 -55h12zM313 184c4 10 9 18 17 24c-8 6 -13 14 -17 23c-4 10 -6 19 -5 29h-4c-19 0 -36 8 -48 22
c-12 -14 -29 -22 -48 -22h-4c1 -10 -1 -19 -5 -28c-4 -10 -9 -18 -17 -24c8 -6 13 -14 17 -23c4 -10 6 -19 5 -29h4c19 0 36 -8 48 -22c1 2 3 3 4 5c12 11 28 17 44 17h4c-1 10 1 19 5 28zM240 240c9 0 16 -7 16 -16s-7 -16 -16 -16s-16 7 -16 16s7 16 16 16zM466 364
c18 -7 30 -25 30 -44c0 -221 -136 -345 -222 -380c-6 -3 -12 -4 -18 -4s-13 1 -18 4c-108 44 -222 181 -222 380c0 19 12 37 30 44l192 80c4 2 13 4 18 4s14 -2 18 -4zM262 -31c70 29 202 140 202 351c0 6 -4 12 -10 15l-192 80c-1 0 -4 1 -6 1s-5 -1 -6 -1l-192 -80
c-6 -3 -10 -9 -10 -15c0 -183 105 -310 202 -351c2 -1 4 -1 6 -1s4 0 6 1z" />
    <glyph glyph-name="sink" unicode="&#xe06d;" 
d="M496 160c9 0 16 -7 16 -16s-7 -16 -16 -16h-480c-9 0 -16 7 -16 16s7 16 16 16h112v16c0 9 -7 16 -16 16h-64c-9 0 -16 7 -16 16s7 16 16 16h64c26 0 48 -22 48 -48v-16h80v208c0 44 36 80 80 80s80 -36 80 -80v-32c0 -9 -7 -16 -16 -16s-16 7 -16 16v32
c0 26 -22 48 -48 48s-48 -22 -48 -48v-208h80v16c0 26 22 48 48 48h64c9 0 16 -7 16 -16s-7 -16 -16 -16h-64c-9 0 -16 -7 -16 -16v-16h112zM464 96c9 0 16 -7 16 -16v-32c0 -62 -50 -112 -112 -112h-224c-62 0 -112 50 -112 112v32c0 9 7 16 16 16s16 -7 16 -16v-32
c0 -44 36 -80 80 -80h224c44 0 80 36 80 80v32c0 9 7 16 16 16z" />
    <glyph glyph-name="soap" unicode="&#xe06e;" 
d="M320 208c-35 0 -64 29 -64 64s29 64 64 64s64 -29 64 -64s-29 -64 -64 -64zM320 304c-18 0 -32 -14 -32 -32s14 -32 32 -32s32 14 32 32s-14 32 -32 32zM400 352c-26 0 -48 22 -48 48s22 48 48 48s48 -22 48 -48s-22 -48 -48 -48zM400 416c-9 0 -16 -7 -16 -16
s7 -16 16 -16s16 7 16 16s-7 16 -16 16zM434 254c45 -8 78 -47 78 -94v-128c0 -53 -43 -96 -96 -96h-320c-53 0 -96 43 -96 96v128c0 53 43 96 96 96h112c9 0 16 -7 16 -16s-7 -16 -16 -16h-112c-35 0 -64 -29 -64 -64v-128c0 -35 29 -64 64 -64h320c35 0 64 29 64 64v128
c0 31 -22 57 -51 63c-7 1 -13 8 -13 15v0c0 10 9 18 18 16zM160 176h192c44 0 80 -36 80 -80s-36 -80 -80 -80h-192c-44 0 -80 36 -80 80s36 80 80 80zM400 96c0 26 -22 48 -48 48h-192c-26 0 -48 -22 -48 -48s22 -48 48 -48h192c26 0 48 22 48 48zM192 320
c-35 0 -64 29 -64 64s29 64 64 64s64 -29 64 -64s-29 -64 -64 -64zM192 416c-18 0 -32 -14 -32 -32s14 -32 32 -32s32 14 32 32s-14 32 -32 32z" />
    <glyph glyph-name="stopwatch-20" unicode="&#xe06f;" horiz-adv-x="448" 
d="M427 309l-38 -39c27 -35 43 -78 43 -126c0 -115 -93 -208 -208 -208s-208 93 -208 208c0 109 85 199 192 207v65h-64c-9 0 -16 7 -16 16s7 16 16 16h160c9 0 16 -7 16 -16s-7 -16 -16 -16h-64v-65c49 -4 94 -25 128 -57l37 37c6 7 15 6 22 0s7 -16 0 -22zM400 144
c0 97 -79 176 -176 176s-176 -79 -176 -176s79 -176 176 -176s176 79 176 176zM288 256c26 0 48 -22 48 -48v-128c0 -26 -22 -48 -48 -48s-48 22 -48 48v128c0 26 22 48 48 48zM304 80v128c0 9 -7 16 -16 16s-16 -7 -16 -16v-128c0 -9 7 -16 16 -16s16 7 16 16zM160 256
c26 0 48 -22 48 -48v-8c0 -32 -14 -61 -38 -82c-16 -14 -25 -33 -26 -54h48c9 0 16 -7 16 -16s-7 -16 -16 -16h-64c-9 0 -16 7 -16 16v13c0 31 14 61 38 81c16 15 26 36 26 58v8c0 9 -7 16 -16 16s-16 -7 -16 -16s-7 -16 -16 -16s-16 7 -16 16c0 26 22 48 48 48z" />
    <glyph glyph-name="shop-slash" unicode="&#xe070;" horiz-adv-x="640" 
d="M26 445l608 -480c7 -6 8 -16 3 -23c-4 -4 -8 -6 -13 -6c-3 0 -7 1 -10 3l-608 480c-7 6 -8 16 -3 23c6 7 16 8 23 3zM526 416h-386l-38 30c3 1 8 2 12 2h412c15 0 28 -7 36 -19l71 -107c9 -13 9 -30 2 -43c-8 -14 -22 -23 -38 -23h-255l-40 32h295c9 0 14 10 9 17
l-71 106c-2 3 -5 5 -9 5zM544 208c0 9 7 16 16 16s16 -7 16 -16v-137l-32 26v111zM96 96h242l46 -36v-76c0 -26 -22 -48 -48 -48h-224c-26 0 -48 22 -48 48v224c0 9 7 16 16 16s16 -7 16 -16v-112zM352 -16v80h-256v-80c0 -9 7 -16 16 -16h224c9 0 16 7 16 16zM95 288
l41 -32h-93c-16 0 -31 9 -38 23s-7 30 2 43l16 23l25 -20l-14 -20c-5 -8 0 -17 9 -17h52z" />
    <glyph glyph-name="store-slash" unicode="&#xe071;" horiz-adv-x="640" 
d="M124 224c-4 0 -8 0 -12 1c-47 6 -73 55 -61 98l29 -23c1 -7 2 -13 5 -19c3 -8 12 -22 32 -24c2 -1 5 -1 7 -1c4 0 7 0 10 1l30 -23c-12 -6 -25 -10 -40 -10zM528 192c9 0 16 -7 16 -16v-79l-32 25v54c0 9 7 16 16 16zM496 416h-352l-26 19c5 8 14 13 24 13h356
c10 0 19 -5 24 -13l58 -91c29 -47 3 -112 -52 -119c-4 -1 -8 -1 -13 -1c-26 0 -49 11 -65 29c-16 -18 -39 -29 -65 -29h-3l-76 61l14 16l24 -27c10 -11 25 -18 41 -18s31 7 42 18l23 27l24 -27c11 -11 26 -18 41 -18c3 0 6 0 8 1c20 2 29 16 32 24c7 15 6 32 -2 46zM496 -32
c1 0 2 0 4 1l27 -22c-9 -7 -19 -11 -31 -11h-352c-27 0 -48 22 -48 48v192c0 9 7 16 16 16s16 -7 16 -16v-80h210l41 -32h-251v-80c0 -9 7 -16 16 -16h352zM634 -35c7 -6 8 -16 3 -23c-4 -4 -8 -6 -13 -6c-3 0 -7 1 -10 3l-608 480c-7 6 -8 16 -3 23c6 7 16 8 23 3z" />
    <glyph glyph-name="toilet-paper-slash" unicode="&#xe072;" horiz-adv-x="640" 
d="M634 -35c7 -6 8 -16 3 -23c-4 -4 -8 -6 -13 -6c-3 0 -7 1 -10 3l-608 480c-7 6 -8 16 -3 23c6 7 16 8 23 3zM176 416c-8 0 -17 -4 -25 -9l-26 20c16 13 33 21 51 21h320c63 0 112 -84 112 -192c0 -72 -22 -133 -55 -166l-25 20c28 25 48 82 48 146c0 87 -37 160 -80 160
s-80 -73 -80 -160v-58l-32 25v33c0 68 19 126 49 160h-257zM361 -32c11 34 19 58 22 93l30 -24c-4 -26 -14 -55 -22 -79c-4 -13 -16 -22 -30 -22h-313c-11 0 -19 11 -15 21c21 64 31 86 31 127v172c0 18 2 36 4 53l30 -23c-1 -10 -2 -20 -2 -30v-172c0 -13 1 -47 -26 -116
h291zM496 336c27 0 48 -34 48 -80s-21 -80 -48 -80s-48 34 -48 80s21 80 48 80zM496 208c9 0 16 21 16 48s-7 48 -16 48s-16 -21 -16 -48s7 -48 16 -48z" />
    <glyph glyph-name="users-slash" unicode="&#xe073;" horiz-adv-x="640" 
d="M320 304c-11 0 -21 -2 -30 -7l-27 22c16 11 36 17 57 17c57 0 104 -47 104 -104c0 -12 -3 -24 -7 -35l-27 21c1 5 2 9 2 14c0 40 -32 72 -72 72zM512 288c-44 0 -80 36 -80 80s36 80 80 80s80 -36 80 -80s-36 -80 -80 -80zM512 416c-26 0 -48 -22 -48 -48s22 -48 48 -48
s48 22 48 48s-22 48 -48 48zM169 393c-6 10 -15 17 -26 20l-39 31c8 2 16 4 24 4c44 0 80 -36 80 -80c0 -2 0 -4 -1 -6zM26 445l608 -480c7 -6 8 -16 3 -23c-4 -4 -8 -6 -13 -6c-3 0 -7 1 -10 3l-608 480c-7 6 -8 16 -3 23c6 7 16 8 23 3zM561 256c44 0 79 -37 79 -83v-13
c0 -9 -7 -16 -16 -16s-16 7 -16 16v13c0 28 -21 51 -47 51h-65c-6 0 -13 -1 -19 -4c-8 -4 -17 -1 -21 7s0 18 8 22c10 5 21 7 32 7h65zM136 256l40 -32h-97c-26 0 -47 -23 -47 -51v-13c0 -9 -7 -16 -16 -16s-16 7 -16 16v13c0 46 35 83 79 83h57zM160 -32h340l11 -9
c-1 -13 -13 -23 -27 -23h-328c-15 0 -28 12 -28 27c0 73 64 133 142 133h68l42 -33c-3 0 -7 1 -10 1h-100c-59 0 -107 -43 -110 -96z" />
    <glyph glyph-name="virus" unicode="&#xe074;" horiz-adv-x="576" 
d="M508 220c15 0 28 -12 28 -28s-13 -28 -28 -28h-22c-51 0 -76 -62 -40 -98l15 -15c11 -11 11 -29 0 -40c-6 -6 -13 -8 -20 -8s-15 2 -20 8l-15 15c-12 12 -26 17 -40 17c-29 0 -58 -23 -58 -57v-22c0 -15 -12 -28 -28 -28s-28 13 -28 28v22c0 34 -29 57 -58 57
c-14 0 -28 -5 -40 -17l-15 -15c-5 -6 -13 -8 -20 -8s-14 2 -20 8c-11 11 -11 29 0 40l15 15c36 36 11 98 -40 98h-22c-15 0 -28 12 -28 28s13 28 28 28h22c51 0 76 62 40 98l-15 15c-11 11 -11 29 0 40c6 6 13 8 20 8s15 -2 20 -8l15 -15c12 -12 26 -17 40 -17
c29 0 58 23 58 57v22c0 15 12 28 28 28s28 -13 28 -28v-22c0 -34 29 -57 58 -57c14 0 28 5 40 17l15 15c5 6 13 8 20 8s14 -2 20 -8c11 -11 11 -29 0 -40l-15 -15c-36 -36 -11 -98 40 -98h22zM404 141c11 25 31 44 57 51c-26 7 -46 26 -57 51c-11 26 -9 54 4 77
c-13 -7 -27 -11 -42 -11c-41 0 -75 27 -86 64c-11 -37 -45 -64 -86 -64c-15 0 -29 4 -42 11c13 -23 15 -51 4 -77c-11 -25 -31 -44 -57 -51c26 -7 46 -26 57 -51c11 -26 9 -54 -4 -77c13 7 27 11 42 11c41 0 75 -27 86 -64c11 37 45 64 86 64c15 0 29 -4 42 -11
c-13 23 -15 51 -4 77zM248 272c26 0 48 -22 48 -48s-22 -48 -48 -48s-48 22 -48 48s22 48 48 48zM248 208c9 0 16 7 16 16s-7 16 -16 16s-16 -7 -16 -16s7 -16 16 -16zM328 160c9 0 16 -7 16 -16s-7 -16 -16 -16s-16 7 -16 16s7 16 16 16z" />
    <glyph glyph-name="virus-slash" unicode="&#xe075;" horiz-adv-x="640" 
d="M373 69l32 -26c-29 0 -57 -23 -57 -57v-22c0 -15 -12 -28 -28 -28s-28 13 -28 28v22c0 34 -29 57 -58 57c-14 0 -28 -5 -40 -17l-15 -15c-5 -6 -13 -8 -20 -8s-14 2 -20 8c-11 11 -11 29 0 40l15 15c36 36 11 98 -40 98h-22c-15 0 -28 12 -28 28s13 28 28 28h22
c18 0 32 8 42 20l25 -20c-11 -13 -25 -23 -42 -28c26 -7 46 -26 57 -51c11 -26 9 -54 -4 -77c13 7 27 11 42 11c41 0 75 -27 86 -64c8 26 28 48 53 58zM320 373c-8 -26 -28 -47 -53 -58l-32 26c29 0 57 23 57 57v22c0 15 12 28 28 28s28 -13 28 -28v-22c0 -34 29 -57 58 -57
c14 0 28 5 40 17l15 15c5 6 13 8 20 8s14 -2 20 -8c11 -11 11 -29 0 -40l-15 -15c-36 -36 -11 -98 40 -98h22c15 0 28 -12 28 -28s-13 -28 -28 -28h-22c-18 0 -32 -8 -42 -20l-25 20c11 13 25 23 42 28c-26 7 -46 26 -57 51c-11 26 -9 54 4 77c-13 -7 -27 -11 -42 -11
c-41 0 -75 27 -86 64zM634 -35c7 -6 8 -16 3 -23c-4 -4 -8 -6 -13 -6c-3 0 -7 1 -10 3l-608 480c-7 6 -8 16 -3 23c6 7 16 8 23 3z" />
    <glyph glyph-name="viruses" unicode="&#xe076;" horiz-adv-x="640" 
d="M240 224c0 -9 -7 -16 -16 -16s-16 7 -16 16s7 16 16 16s16 -7 16 -16zM316 162l12 -12c8 -8 8 -21 0 -30c-4 -4 -10 -6 -15 -6s-11 2 -15 6l-12 12c-9 8 -19 12 -30 12c-22 0 -43 -17 -43 -42v-17c0 -11 -9 -21 -21 -21s-21 10 -21 21v17c0 25 -21 42 -43 42
c-11 0 -22 -4 -30 -12l-12 -12c-4 -4 -9 -6 -15 -6s-11 2 -15 6c-8 9 -8 22 0 30l12 12c27 27 8 73 -30 73h-17c-11 0 -21 9 -21 21s10 21 21 21h17c38 0 57 46 30 73l-12 12c-8 8 -8 21 0 30c4 4 10 6 15 6s11 -2 15 -6l12 -12c9 -8 19 -12 30 -12c22 0 43 17 43 42v17
c0 11 9 21 21 21s21 -10 21 -21v-17c0 -25 21 -42 43 -42c11 0 22 4 30 12l12 12c4 4 9 6 15 6s11 -2 15 -6c8 -9 8 -22 0 -30l-12 -12c-27 -27 -8 -73 30 -73h17c11 0 21 -9 21 -21s-10 -21 -21 -21h-17c-38 0 -57 -46 -30 -73zM308 256c-13 8 -24 20 -30 35
c-7 16 -8 32 -4 47c-6 -2 -12 -2 -18 -2c-27 0 -51 14 -64 36c-13 -22 -37 -36 -64 -36c-6 0 -12 0 -18 2c4 -15 3 -31 -4 -47c-6 -15 -17 -27 -30 -35c13 -8 24 -20 30 -35c7 -16 8 -32 4 -47c6 2 12 2 18 2c27 0 51 -14 64 -36c13 22 37 36 64 36c6 0 12 0 18 -2
c-4 15 -3 31 4 47c6 15 17 27 30 35zM480 112c9 0 16 -7 16 -16s-7 -16 -16 -16s-16 7 -16 16s7 16 16 16zM640 80c0 -9 -7 -16 -16 -16h-12c-29 0 -43 -34 -23 -55l9 -8c6 -6 6 -17 0 -23c-3 -3 -7 -4 -12 -4s-8 1 -11 4l-8 9c-7 6 -15 9 -23 9c-16 0 -32 -13 -32 -32v-12
c0 -9 -7 -16 -16 -16s-16 7 -16 16v12c0 19 -16 32 -32 32c-8 0 -16 -3 -23 -9l-8 -9c-3 -3 -7 -4 -12 -4s-8 1 -11 4c-6 6 -6 17 0 23l9 8c20 21 6 55 -23 55h-12c-9 0 -16 7 -16 16s7 16 16 16h12c29 0 43 34 23 55l-9 8c-6 6 -6 17 0 23c3 3 7 4 12 4s8 -1 11 -4l8 -9
c7 -6 15 -9 23 -9c16 0 32 13 32 32v12c0 9 7 16 16 16s16 -7 16 -16v-12c0 -19 16 -32 32 -32c8 0 16 3 23 9l8 9c3 3 7 4 12 4s8 -1 11 -4c6 -6 6 -17 0 -23l-9 -8c-20 -21 -6 -55 23 -55h12c9 0 16 -7 16 -16zM570 80c-8 6 -13 14 -17 24c-4 9 -6 18 -5 28h-4
c-19 0 -36 8 -48 22c-12 -14 -29 -22 -48 -22h-4c1 -10 -1 -19 -5 -28c-4 -10 -9 -18 -17 -24c8 -6 13 -14 17 -24c4 -9 6 -18 5 -28h4c19 0 36 -8 48 -22c12 14 29 22 48 22h4c-1 10 1 19 5 28c4 10 9 18 17 24zM168 304c13 0 24 -11 24 -24s-11 -24 -24 -24s-24 11 -24 24
s11 24 24 24z" />
    <glyph glyph-name="vest" unicode="&#xe085;" horiz-adv-x="448" 
d="M440 192c5 -7 8 -16 8 -26v-182c0 -26 -22 -48 -48 -48h-352c-26 0 -48 22 -48 48v182c0 10 3 19 9 27l39 67v140c0 26 22 48 48 48h39c6 0 12 -4 15 -10c1 -3 -1 -1 12 -10c38 -27 86 -27 124 0c13 9 11 7 12 10c3 6 9 10 15 10h39c26 0 48 -22 48 -48v-140zM224 376
c-19 0 -37 4 -55 12l55 -150l55 150c-18 -8 -36 -12 -55 -12zM193 158l14 35l-83 222l-1 1h-27c-9 0 -16 -7 -16 -16v-144c0 -3 -1 -6 -2 -8l-42 -72c-3 -4 -4 -7 -4 -10v-143l77 76c6 7 15 6 22 0s7 -16 0 -22l-98 -99c2 -6 8 -10 15 -10h144v184c0 2 0 4 1 6zM416 23v143
c0 3 -1 6 -3 9l-43 73c-1 2 -2 5 -2 8v144c0 9 -7 16 -16 16h-27l-1 -1l-100 -266v-181h176c7 0 13 4 15 10l-98 99c-7 6 -6 15 0 22s16 7 22 0z" />
    <glyph glyph-name="vest-patches" unicode="&#xe086;" horiz-adv-x="448" 
d="M440 192c5 -7 8 -16 8 -26v-182c0 -26 -22 -48 -48 -48h-352c-26 0 -48 22 -48 48v182c0 10 3 19 9 27l39 67v140c0 26 22 48 48 48h39c6 0 12 -4 15 -10c1 -3 -1 -1 12 -10c38 -27 86 -27 124 0c13 9 11 7 12 10c3 6 9 10 15 10h39c26 0 48 -22 48 -48v-140zM224 376
c-19 0 -37 4 -55 12l55 -150l55 150c-18 -8 -36 -12 -55 -12zM193 158l14 35l-83 222l-1 1h-27c-9 0 -16 -7 -16 -16v-144c0 -3 -1 -6 -2 -8l-42 -72c-3 -4 -4 -7 -4 -10v-182c0 -9 7 -16 16 -16h144v184c0 2 0 4 1 6zM416 -16v182c0 3 -1 6 -3 9l-43 73c-1 2 -2 5 -2 8v144
c0 9 -7 16 -16 16h-27l-1 -1l-100 -266v-181h176c9 0 16 7 16 16zM352 176c17 -4 30 -18 32 -35c1 -12 -3 -23 -11 -31c-7 -9 -18 -14 -30 -14h-48v0c-6 0 -12 2 -16 7c-5 4 -7 10 -7 16v48c0 12 5 23 14 30c8 8 19 12 31 11c17 -2 31 -15 35 -32zM343 128c11 0 13 17 0 17
h-22l1 22c0 13 -18 11 -18 0v-39h39zM107 203l13 -12l13 12c6 7 15 6 22 0s7 -16 0 -22l-12 -13l12 -13c7 -6 7 -16 0 -22c-3 -3 -7 -5 -11 -5s-8 2 -11 5l-13 12l-13 -12c-3 -3 -7 -5 -11 -5s-8 2 -11 5c-7 6 -7 16 0 22l12 13l-12 13c-7 6 -6 15 0 22s16 7 22 0zM112 96
c26 0 48 -22 48 -48s-22 -48 -48 -48s-48 22 -48 48s22 48 48 48zM112 32c9 0 16 7 16 16s-7 16 -16 16s-16 -7 -16 -16s7 -16 16 -16z" />
    <glyph glyph-name="0" unicode="&#xe089;" horiz-adv-x="320" 
d="M160 416c88 0 160 -72 160 -160v-128c0 -88 -72 -160 -160 -160s-160 72 -160 160v128c0 88 72 160 160 160zM288 128v128c0 71 -57 128 -128 128s-128 -57 -128 -128v-128c0 -71 57 -128 128 -128s128 57 128 128z" />
    <glyph glyph-name="1" unicode="&#xe08a;" horiz-adv-x="256" 
d="M256 -16c0 -9 -7 -16 -16 -16h-224c-9 0 -16 7 -16 16s7 16 16 16h96v369l-55 -38c-7 -5 -17 -3 -22 4s-3 17 4 22l80 56c5 4 11 4 16 1c6 -3 9 -8 9 -14v-400h96c9 0 16 -7 16 -16z" />
    <glyph glyph-name="2" unicode="&#xe08b;" horiz-adv-x="320" 
d="M320 -16c0 -9 -7 -16 -16 -16h-288c-7 0 -13 4 -15 10s-1 13 4 18l213 194c46 40 52 108 13 154c-19 23 -47 37 -77 40c-29 2 -58 -8 -81 -27l-32 -28c-7 -6 -17 -6 -23 1s-5 17 2 23l32 28c29 25 67 37 105 35c39 -3 73 -22 98 -51c50 -60 43 -147 -15 -199l-183 -166
h247c9 0 16 -7 16 -16z" />
    </font>
</defs>
</svg>
